Depeche Mode - Construction Time Again (1983) [1986, Mute INT 846.807]

Download Now

Depeche Mode - Construction Time Again (1983) [1986, Mute INT 846.807]

Depeche Mode - Construction Time Again (1983)
EAC | Flac(Image) + Cue + Log & MP3 CBR 320Kbps
Mute INT 846.807 | Germany | ~ 253 or 103 Mb | Scans(jpg) -> 28 Mb
Synth-pop

"The full addition of Alan Wilder to Depeche Mode's lineup created a perfect troika that would last another 11 years, as the combination of Martin Gore's songwriting, Wilder's arranging, and David Gahan's singing and live star power resulted in an ever more compelling series of albums and singles. Construction Time Again, the new lineup's first full effort, is a bit hit and miss nonetheless, but when it does hit, it does so perfectly..."


Tracklist:

01. Love, In Itself [0:04:29.05]
02. More Than A Party [0:04:45.35]
03. Pipeline [0:05:54.55]
04. Everything Counts [0:04:20.70]
05. Two Minute Warning [0:04:13.55]
06. Shame [0:03:51.58]
07. The Landscape Is Changing [0:04:49.30]
08. Told You So [0:04:26.45]
09. And Then... [0:04:35.67]
10. Everything Counts (Reprise) [0:00:59.43]

Exact Audio Copy V0.99 prebeta 5 from 4. May 2009

EAC extraction logfile from 15. December 2011, 21:21

Depeche Mode / Construction Time Again

Used drive : SlimtypeBD E DS4E1S Adapter: 0 ID: 1

Read mode : Secure
Utilize accurate stream : Yes
Defeat audio cache : Yes
Make use of C2 pointers : No

Read offset correction

: 6
Overread into Lead-In and Lead-Out : No
Fill up missing offset samples with silence : Yes
Delete leading and trailing silent blocks : No
Null samples used in CRC calculations : Yes
Used interface
: Native Win32 interface for Win NT & 2000

Used output format : User Defined Encoder
Selected bitrate : 768 kBit/s
Quality : High
Add ID3 tag : No
Command line compressor : C:\Program Files (x86)\Exact Audio Copy\Flac\flac.exe
Additional command line options : -T "DATE=%y" -T "GENRE=%m" -8 -V %s

TOC of the extracted CD Track | Start | Length | Start sector | End sector
--1 | 0:00.32 | 4:29.05 | 32 | 20211 2 | 4:29.37 | 4:45.35 | 20212 | 41621 3 | 9:14.72 | 5:54.55 | 41622 | 68226 4 | 15:09.52 | 4:20.70 | 68227 | 87796 5 | 19:30.47 | 4:13.55 | 87797 | 106826 6 | 23:44.27 | 3:51.58 | 106827 | 124209 7 | 27:36.10 | 4:49.30 | 124210 | 145914 8 | 32:25.40 | 4:26.45 | 145915 | 165909 9 | 36:52.10 | 4:35.67 | 165910 | 186601
10 | 41:28.02 | 0:59.43 | 186602 | 191069

Range status and errors

Selected range Filename F:\Depeche Mode - Construction Time Again (1983) (MUTE INT 846.807) (2nd Germany 1986)\Depeche Mode - Construction Time Again.wav Peak level 84.4 %
Range quality 99.9 %
Test CRC 1A30387E
Copy CRC 1A30387E
Copy OK

No errors occurred


AccurateRip summary

Track 1 accurately ripped (confidence 83) 4A4B5A2
Track 2 accurately ripped (confidence 84) [9CD986D1]
Track 3 accurately ripped (confidence 82) [9616EFB1]
Track 4 accurately ripped (confidence 82) [F1CA30E1]
Track 5 accurately ripped (confidence 82) [40812FB2]
Track 6 accurately ripped (confidence 83) [4345AEB6]
Track 7 accurately ripped (confidence 83) [052EA174]
Track 8 accurately ripped (confidence 83) [A2BCB476]
Track 9 accurately ripped (confidence 82) 396CB59
Track 10 accurately ripped (confidence 80) [D69029FA]

All tracks accurately ripped

End of status report

foobar2000 1.2.9 / Dynamic Range Meter 1.1.1
log date: 2015-08-27 11:34:36

Analyzed: Depeche Mode / Construction Time Again

DR Peak RMS Duration Track

DR11 -2.94 dB -16.67 dB 4:29 01-Love, In Itself
DR11 -1.47 dB -15.89 dB 4:45 02-More Than A Party
DR11 -4.16 dB -18.32 dB 5:55 03-Pipeline
DR12 -1.97 dB -16.26 dB 4:21 04-Everything Counts
DR12 -4.15 dB -19.19 dB 4:14 05-Two Minute Warning
DR12 -3.67 dB -18.81 dB 3:52 06-Shame
DR14 -2.81 dB -18.79 dB 4:49 07-The Landscape Is Changing
DR11 -2.24 dB -16.63 dB 4:27 08-Told You So
DR12 -2.97 dB -17.39 dB 4:36 09-And Then...
DR11 -9.39 dB -27.47 dB 1:00 10-Everything Counts (Reprise)

Number of tracks: 10
Official DR value: DR12

Samplerate: 44100 Hz
Channels: 2
Bits per sample: 16
Bitrate: 796 kbps
Codec: FLAC

[CUETools log; Date: 27.08.2015 11:32:31; Version: 2.1.4]
Pregap length 00:00:32.
[CTDB TOCID: _43gSfREF44jBPuwiAMGLdL6NXk-] found.
Track | CTDB Status
1 | (64/65) Accurately ripped
2 | (64/65) Accurately ripped
3 | (64/65) Accurately ripped
4 | (63/65) Accurately ripped
5 | (63/65) Accurately ripped
6 | (64/65) Accurately ripped
7 | (64/65) Accurately ripped
8 | (64/65) Accurately ripped
9 | (64/65) Accurately ripped
10 | (63/65) Accurately ripped
[AccurateRip ID: 00115ef8-0089928b-8009f30a] found.
Track [ CRC | V2 ] Status
01 4a4b5a2|3c4e95b1 (088+066/223) Accurately ripped
02 [9cd986d1|f565e951] (089+067/225) Accurately ripped
03 [9616efb1|72e5858d] (087+067/222) Accurately ripped
04 [f1ca30e1|ccfe561f] (087+067/223) Accurately ripped
05 [40812fb2|88d987b0] (087+067/223) Accurately ripped
06 [4345aeb6|f441b5b6] (088+066/223) Accurately ripped
07 [052ea174|9b331b00] (088+066/222) Accurately ripped
08 [a2bcb476|3d1a5be4] (088+068/225) Accurately ripped
09 396cb59|a15583e7 (087+067/222) Accurately ripped
10 [d69029fa|f3c8029c] (085+067/222) Accurately ripped
Offsetted by -1727:
01 [d755b1be] (036/223) Accurately ripped
02 [13efdf18] (036/225) Accurately ripped
03 [ab973e46] (036/222) Accurately ripped
04 [470bda43] (036/223) Accurately ripped
05 [47f158b3] (036/223) Accurately ripped
06 [ec239f5a] (036/223) Accurately ripped
07 [e466b3f6] (037/222) Accurately ripped
08 [7b8ca8c3] (036/225) Accurately ripped
09 [7250fa72] (036/222) Accurately ripped
10 [91ea3c19] (036/222) Accurately ripped

Track Peak [ CRC32 ] [W/O NULL] [ LOG ]
-- 84,4 [1A30387E] [430F1E9A] CRC32
01 71,2 [8705429D] [43651D20]
02 84,4 [7FB0AC7C] [6EA53791]
03 61,9 [DC2F6C3D] [96D5E1F8]
04 79,7 [1888F8A1] [A83D7A91]
05 61,9 [09734894] [CC3F50E6]
06 65,5 [E10ED310] [AE2B8E28]
07 72,3 [80F02CD0] [ABC6670D]
08 77,2 [5893E586] [93780108]
09 71,0 [D0873D36] [5DFD3F2A]
10 33,9 [129B773D] [F81841F1]

Depeche Mode - Construction Time Again (1983) [1986, Mute INT 846.807]

DOWNLOAD LINKS:
(Premium Recommended)


All above links are interchangable. No password

Direct Download

Tags: Depeche, Construction

Depeche Mode - Construction Time Again (1983) [1986, Mute INT 846.807] Download via Hotfile Rapidshare Fileserve Megaupload & FileSonic, Depeche Mode - Construction Time Again (1983) [1986, Mute INT 846.807] free torrent downloads included crack, serial, keygen.


Attention!Information

Members of Guest cannot leave comments.