Akale Wube - Sost (2014) {Clapson}

Download Now


Akale Wube - Sost (2014) {Clapson}
Akale Wube - Sost (2014) {Clapson}
EAC rip (secure mode) | FLAC (tracks)+CUE+LOG -> 328 Mb | MP3 @320 -> 121 Mb
Full Artwork @ 300 dpi (jpg) -> 20 Mb | 5% repair rar
© 2014 Clapson | CS1497
African Music / Afrobeat / Ethio Jazz / Groove Jazz

"Akalé Wubé's third album, Sost ("three" in Amharique) is perfectly in line with their previous records, it is also a testament to a more mature and experienced band, who have proved able to win over different audiences in different circumstances with their infectious grooves. While touring in Ethiopia, the band realised that local musicians had stopped playing music from the Swinging Addis golden age. A puzzling but liberating discovery that convinced the band to completely stand behind their project, and release three albums to date."

Akale Wube - Sost (2014) {Clapson}


tracklist:
01 - Anbessa
02 - Alegntaye
03 - Memona
04 - Kidus A Cent Dix
05 - Ashewa
06 - Gab's Trap
07 - Addis Abeba Bete
08 - Fikratchen
09 - Erikum
10 - Spring No Come
11 - Meri Tekikil

Exact Audio Copy V1.0 beta 3 from 29. August 2011

EAC extraction logfile from 8. April 2015, 23:45

Akale Wube / Sost

Used drive : TSSTcorpCDDVDW SN-208DN Adapter: 0 ID: 0

Read mode : Secure
Utilize accurate stream : Yes
Defeat audio cache : Yes
Make use of C2 pointers : No

Read offset correction

: 6
Overread into Lead-In and Lead-Out : No
Fill up missing offset samples with silence : Yes
Delete leading and trailing silent blocks : No
Null samples used in CRC calculations : Yes
Used interface
: Native Win32 interface for Win NT & 2000
Gap handling
: Appended to previous track

Used output format : User Defined Encoder
Selected bitrate : 128 kBit/s
Quality : High
Add ID3 tag : No
Command line compressor : C:\Program Files (x86)\Exact Audio Copy\Flac\flac.exe
Additional command line options : -8 -V -T "ARTIST=%artist%" -T "TITLE=%title%" -T "ALBUM=%albumtitle%" -T "DATE=%year%" -T "TRACKNUMBER=%tracknr%" -T "TOTALTRACKS=%numtracks%" -T "GENRE=%genre%" -T "ALBUMARTIST=%albumartist%" -T "ALBUM ARTIST=%albumartist%" -T "COMMENT=EAC Secure Mode, Test & Copy, AccurateRip, FLAC -8" %source%

TOC of the extracted CD Track | Start | Length | Start sector | End sector
--1 | 0:00.00 | 3:41.55 | 0 | 16629 2 | 3:41.55 | 4:19.09 | 16630 | 36063 3 | 8:00.64 | 5:59.06 | 36064 | 62994 4 | 13:59.70 | 5:17.16 | 62995 | 86785 5 | 19:17.11 | 4:36.32 | 86786 | 107517 6 | 23:53.43 | 4:00.07 | 107518 | 125524 7 | 27:53.50 | 4:40.44 | 125525 | 146568 8 | 32:34.19 | 3:26.27 | 146569 | 162045 9 | 36:00.46 | 5:28.24 | 162046 | 186669
10 | 41:28.70 | 4:26.16 | 186670 | 206635
11 | 45:55.11 | 4:54.11 | 206636 | 228696

Track 1 Filename C:\01 - Anbessa.wav Pre-gap length 0:00:02.00 Peak level 100.0 %
Extraction speed 2.3 X
Track quality 99.9 %
Test CRC 3DE21EDC
Copy CRC 3DE21EDC
Track not present in AccurateRip database
Copy OK

Track 2 Filename C:\02 - Alegntaye.wav Peak level 100.0 %
Extraction speed 3.2 X
Track quality 100.0 %
Test CRC 2C8CC41D
Copy CRC 2C8CC41D
Track not present in AccurateRip database
Copy OK

Track 3 Filename C:\03 - Memona.wav Peak level 94.4 %
Extraction speed 3.7 X
Track quality 100.0 %
Test CRC 08604D83
Copy CRC 08604D83
Track not present in AccurateRip database
Copy OK

Track 4 Filename C:\04 - Kidus A Cent Dix.wav Peak level 100.0 %
Extraction speed 4.0 X
Track quality 100.0 %
Test CRC 8D9D37EB
Copy CRC 8D9D37EB
Track not present in AccurateRip database
Copy OK

Track 5 Filename C:\05 - Ashewa.wav Pre-gap length 0:00:02.07 Peak level 100.0 %
Extraction speed 4.2 X
Track quality 100.0 %
Test CRC BFF8CDCB
Copy CRC BFF8CDCB
Track not present in AccurateRip database
Copy OK

Track 6 Filename C:\06 - Gab's Trap.wav Pre-gap length 0:00:01.33 Peak level 99.7 %
Extraction speed 4.3 X
Track quality 100.0 %
Test CRC 22DC5FB2
Copy CRC 22DC5FB2
Track not present in AccurateRip database
Copy OK

Track 7 Filename C:\07 - Addis Abeba Bete.wav Peak level 100.0 %
Extraction speed 4.6 X
Track quality 100.0 %
Test CRC 47142DC6
Copy CRC 47142DC6
Track not present in AccurateRip database
Copy OK

Track 8 Filename C:\08 - Fikratchen.wav Pre-gap length 0:00:01.23 Peak level 100.0 %
Extraction speed 4.6 X
Track quality 100.0 %
Test CRC D29325FB
Copy CRC D29325FB
Track not present in AccurateRip database
Copy OK

Track 9 Filename C:\09 - Erikum.wav Peak level 100.0 %
Extraction speed 4.3 X
Track quality 99.9 %
Test CRC CE9FF250
Copy CRC CE9FF250
Track not present in AccurateRip database
Copy OK

Track 10 Filename C:\10 - Spring No Come.wav Peak level 100.0 %
Extraction speed 4.1 X
Track quality 99.9 %
Test CRC EB288CB2
Copy CRC EB288CB2
Track not present in AccurateRip database
Copy OK

Track 11 Filename C:\11 - Meri Tekikil.wav Pre-gap length 0:00:04.31 Peak level 100.0 %
Extraction speed 4.4 X
Track quality 99.9 %
Test CRC 4ED615CC
Copy CRC 4ED615CC
Track not present in AccurateRip database
Copy OK

None of the tracks are present in the AccurateRip database

No errors occurred

End of status report

==== Log checksum 2C792D796641BF835B0EF75D13B786A89B396360EE45ADF795B8FC8AA24BCE87 ====

Akale Wube - Sost (2014) {Clapson}

Akale Wube - Sost (2014) {Clapson}


All thanks goes to the original releaser!
DOWNLOAD
(Premium Recommended)


All above links are interchangable. No password

Direct Download

Tags: Clapson

Akale Wube - Sost (2014) {Clapson} Download via Hotfile Rapidshare Fileserve Megaupload & FileSonic, Akale Wube - Sost (2014) {Clapson} free torrent downloads included crack, serial, keygen.


Attention!Information

Members of Guest cannot leave comments.