VA - Platoon: Original Motion Picture Soundtrack And Songs From The Era (1987)

Download Now

VA - Platoon: Original Motion Picture Soundtrack And Songs From The Era (1987)

VA - Platoon: Original Motion Picture Soundtrack And Songs From The Era (1987)
EAC Rip | FLAC with CUE and log | scans | 203 mb
MP3 CBR 320kbps | RAR | 92 mb
Genre: soundtrack, classic rock, pop, country, soul, R&B, acid rock, incidental

Platoon is the 1987 soundtrack album to the Oliver Stone film. It features a number of 1960's gems mixed with originals by the The Vancouver Symphony Orchestra.
"In compiling the soundtrack for Oliver Stone's Academy Award winning 1986 Vietnam War epic Platoon, producer Bud Carr opted to eschew original composition in favor of a collection of songs from the '60s in an attempt to capture the period. Many of the songs he selected were not even used in the film. The only excerpt from Georges Delerue's score that made it onto the album was "Barnes Shoots Elias." The '80s were not a golden age for sales of original score soundtracks. With only a handful of exceptions (e.g., Vangelis' Chariots of Fire and a few of John Williams' blockbuster soundtracks), most of the commercially successful soundtrack albums contained hit singles from pop artists. And as Platoon was one of the few Best Picture winners from the era that failed even to land an Original Score nomination at the Oscars, Carr was probably wise to make that decision. He populated the album with classic rock & roll songs like the Doors' "Hello, I Love You," Otis Redding's "(Sittin' On) The Dock of the Bay," Jefferson Airplane's "White Rabbit," and Aretha Franklin's "Respect." But the soundtrack's best moments are not from the '60s at all. They are the Delerue-conducted excerpts from Samuel Barber's haunting "Adagio for Strings," which served as the theme for the movie and bookend the album as the first and last tracks."


VA - Platoon: Original Motion Picture Soundtrack And Songs From The Era (1987)

01. The Vancouver Symphony Orchestra - "The Village" (Adagio For Strings)
02. Smokey Robinson - Tracks Of My Tears
03. Merle Haggard - Okie From Muskogee (Live)
04. The Doors - Hello, I Love You
05. Jefferson Airplane - White Rabbit
06. The Vancouver Symphony Orchestra - "Barnes Shoots Elias"
07. Aretha Franklin - Respect
08. Otis Redding - (Sittin' On) The Dock Of The Bay
09. Percy Sledge - When A Man Loves A Woman
10. The Young Rascals - Groovin'
11. The Vancouver Symphony Orchestra - Adagio For Strings

EAC extraction logfile from 12. October 2006, 6:08 for CD
Various / Platoon (Soundtrack)

Used drive : LITE-ON DVDRW SOHW-1633S Adapter: 0 ID: 0
Read mode : Secure with NO C2, accurate stream, disable cache
Read offset correction : 12
Overread into Lead-In and Lead-Out : No

Used output format : Internal WAV Routines 44.100 Hz; 16 Bit; Stereo

Other options :
Fill up missing offset samples with silence : Yes
Delete leading and trailing silent blocks : No
Installed external ASPI interface

Track 1
Filename D:\FLAC\VA - Platoon (Soundtrack) (1987) [FLAC]\01 - The Vancouver Symphony Orchestra - ''The Village'' (Adagio For Strings).wav Pre-gap length 0:00:02.44 Peak level 97.0 %
Track quality 99.8 %
Test CRC 12FB95B5
Copy CRC 12FB95B5
Copy OK

Track 2
Filename D:\FLAC\VA - Platoon (Soundtrack) (1987) [FLAC]\02 - Smokey Robinson - Tracks Of My Tears.wav Pre-gap length 0:00:01.82 Peak level 99.8 %
Track quality 100.0 %
Test CRC 3DB5D6E0
Copy CRC 3DB5D6E0
Copy OK

Track 3
Filename D:\FLAC\VA - Platoon (Soundtrack) (1987) [FLAC]\03 - Merle Haggard - Okie From Muskogee.wav Pre-gap length 0:00:03.16 Peak level 100.0 %
Track quality 100.0 %
Test CRC FBE03904
Copy CRC FBE03904
Copy OK

Track 4
Filename D:\FLAC\VA - Platoon (Soundtrack) (1987) [FLAC]\04 - The Doors - Hello, I Love You.wav Pre-gap length 0:00:02.46 Peak level 100.0 %
Track quality 100.0 %
Test CRC 71C254C4
Copy CRC 71C254C4
Copy OK

Track 5
Filename D:\FLAC\VA - Platoon (Soundtrack) (1987) [FLAC]\05 - Jefferson Airplane - White Rabbit.wav Pre-gap length 0:00:02.33 Peak level 100.0 %
Track quality 100.0 %
Test CRC 2BABB6ED
Copy CRC 2BABB6ED
Copy OK

Track 6
Filename D:\FLAC\VA - Platoon (Soundtrack) (1987) [FLAC]\06 - The Vancouver Symphony Orchestra - ''Barnes Shoots Elias''.wav Pre-gap length 0:00:01.93 Peak level 100.0 %
Track quality 99.9 %
Test CRC EF56D07C
Copy CRC EF56D07C
Copy OK

Track 7
Filename D:\FLAC\VA - Platoon (Soundtrack) (1987) [FLAC]\07 - Aretha Franklin - Respect.wav Pre-gap length 0:00:00.96 Peak level 100.0 %
Track quality 100.0 %
Test CRC 434CFAC1
Copy CRC 434CFAC1
Copy OK

Track 8
Filename D:\FLAC\VA - Platoon (Soundtrack) (1987) [FLAC]\08 - Otis Redding - (Sittin' On) The Dock Of The Bay.wav Pre-gap length 0:00:02.80 Peak level 100.0 %
Track quality 100.0 %
Test CRC 3A5C4946
Copy CRC 3A5C4946
Copy OK

Track 9
Filename D:\FLAC\VA - Platoon (Soundtrack) (1987) [FLAC]\09 - Percy Sledge - When A Man Loves A Woman.wav Pre-gap length 0:00:03.20 Peak level 100.0 %
Track quality 100.0 %
Test CRC 2CAD5E3A
Copy CRC 2CAD5E3A
Copy OK

Track 10
Filename D:\FLAC\VA - Platoon (Soundtrack) (1987) [FLAC]\10 - The Young Rascals - Groovin'.wav Pre-gap length 0:00:03.26 Peak level 92.1 %
Track quality 100.0 %
Test CRC 13AD2693
Copy CRC 13AD2693
Copy OK

Track 11
Filename D:\FLAC\VA - Platoon (Soundtrack) (1987) [FLAC]\11 - The Vancouver Symphony Orchestra - Adagio For Strings.wav Pre-gap length 0:00:03.42 Peak level 83.6 %
Track quality 100.0 %
Test CRC D484669D
Copy CRC D484669D
Copy OK

No errors occured

End of status report

VA - Platoon: Original Motion Picture Soundtrack And Songs From The Era (1987)

DOWNLOAD LINKS:
Buy Premium To Support Me & Get Resumable Support & Max Speed


Links are Interchangeable - No Password - Single Extraction

Direct Download

Tags: Platoon, Original, Motion, Picture, Soundtrack

VA - Platoon: Original Motion Picture Soundtrack And Songs From The Era (1987) Download via Hotfile Rapidshare Fileserve Megaupload & FileSonic, VA - Platoon: Original Motion Picture Soundtrack And Songs From The Era (1987) free torrent downloads included crack, serial, keygen.


Attention!Information

Members of Guest cannot leave comments.