Paul Young - No Parlez (1983) [25th Anniversary Edition 2008] 2CD

Download Now

Paul Young - No Parlez (1983) [25th Anniversary Edition 2008] 2CD

Paul Young - No Parlez (1983) [25th Anniversary Edition 2008] 2CD
EAC Rip | FLAC: Tracks+Cue+Log | 701 Mb | MP3 CBR 320 kbps | 244 Mb | Scans | TTime: 01:42:45
Genre: Pop Rock, New Wave, Blue-Eyed Soul | Label: Sony BMG Music Ent. | Cat.№: 88697319722

"25th Anniversary 1980's classic, re-mastered and carefully bought back to life - with an additional second disc of re-mixes, B-sides and previously un-released tracks. 28 years on, and still sounding incredible!"



CD1

01. Come Back And Stay (04:24)
02. Love Will Tear Us Apart (04:17)
03. Wherever I Lay My Hat (That's My Home) (05:17)
04. Ku Ku Kurama (04:19)
05. No Parlez (04:52)
06. Love Of The Common People (04:00)
07. Oh Women (03:34)
08. Iron Out The Rough Spots (04:48)
09. Broken Man (03:55)
10. Tender Trap (04:31)
11. Sex (04:50)

Paul Young - No Parlez (1983) [25th Anniversary Edition 2008] 2CD


CD2

01. Come Back And Stay (12'' Mix) (07:31)
02. Iron Out The Rough Spots (12'' Mix) (07:28)
03. Love Of The Common People (12'' Mix) (05:51)
04. Behind Your Smile (04:10)
05. I've Been Lonely For So Long (03:37)
06. Yours (05:39)
07. Sex (Demo) (03:49)
08. Pale Shelter (Demo) (03:50)
09. Better To Have And Don't Need (Live) (05:57)
10. Wherever I Lay My Hat (That's My Home) (Live) (05:59)

Produced by Laurie Latham

Musicians

* Paul Young - Vocals, Guitars
* Mark Pinder - Drums
* Ian Kewley, Laurie Latham (E.T), Mark Pinder, Kim Leslie - Percussion
* Ian Kewley, Matt Irving, Steve Bolton - Keyboards
* Matt Irving, Ntobi Lekan, Pino Palladino - Bass
* Steve Bolton, Matt Irving, Paul Young - Guitars
* Rico Rodriguez - Trombone
* Nimsa Calliza, Dagmar, Chief Dawethi, Eyethu, Zundi Lekau, Kim Leslie, Wally Loak, Jabu Mbato, Fats Mogoboya, Maz Roberts, Norman Zulu, Ian Kewley, Matt Irving - Backing Vocals

Exact Audio Copy V0.99 prebeta 4 from 23. January 2008

EAC extraction logfile from 4. October 2008, 13:51

Paul Young / No Parlez

Used drive : TSSTcorpCD/DVDW SH-S182M Adapter: 0 ID: 1

Read mode : Secure
Utilize accurate stream : Yes
Defeat audio cache : Yes
Make use of C2 pointers : No

Read offset correction

: 6
Overread into Lead-In and Lead-Out : No
Fill up missing offset samples with silence : Yes
Delete leading and trailing silent blocks : No
Null samples used in CRC calculations : Yes
Used interface
: Native Win32 interface for Win NT & 2000
Gap handling
: Appended to previous track

Used output format : User Defined Encoder
Selected bitrate : 192 kBit/s
Quality : High
Add ID3 tag : No
Command line compressor : C:\Program Files (x86)\FLAC\flac.exe
Additional command line options : -V -8 -T "artist=%a" -T "title=%t" -T "album=%g" -T "date=%y" -T "tracknumber=%n" -T "genre=%m" %s

TOC of the extracted CD Track | Start | Length | Start sector | End sector
--1 | 0:01.00 | 4:24.64 | 75 | 19938 2 | 4:25.64 | 4:17.11 | 19939 | 39224 3 | 8:43.00 | 5:17.26 | 39225 | 63025 4 | 14:00.26 | 4:18.71 | 63026 | 82446 5 | 18:19.22 | 4:52.39 | 82447 | 104385 6 | 23:11.61 | 4:00.55 | 104386 | 122440 7 | 27:12.41 | 3:34.00 | 122441 | 138490 8 | 30:46.41 | 4:48.00 | 138491 | 160090 9 | 35:34.41 | 3:55.01 | 160091 | 177716
10 | 39:29.42 | 4:31.05 | 177717 | 198046
11 | 44:00.47 | 4:50.34 | 198047 | 219830

Track 1 Filename C:\Paul Young - No Parlez\Disc 1 of 2\01 - Come Back And Stay.wav Pre-gap length 0:00:03.00 Peak level 97.7 %
Track quality 100.0 %
Test CRC 5948FE4E
Copy CRC 5948FE4E
Track not present in AccurateRip database
Copy OK

Track 2 Filename C:\Paul Young - No Parlez\Disc 1 of 2\02 - Love Will Tear Us Apart.wav Peak level 97.8 %
Track quality 100.0 %
Test CRC F490A666
Copy CRC F490A666
Track not present in AccurateRip database
Copy OK

Track 3 Filename C:\Paul Young - No Parlez\Disc 1 of 2\03 - Wherever I Lay My Hat (That's My Home).wav Peak level 97.8 %
Track quality 100.0 %
Test CRC 342AB0AD
Copy CRC 342AB0AD
Track not present in AccurateRip database
Copy OK

Track 4 Filename C:\Paul Young - No Parlez\Disc 1 of 2\04 - Ku Ku Kurama.wav Peak level 98.2 %
Track quality 100.0 %
Test CRC F4ED5E1B
Copy CRC F4ED5E1B
Track not present in AccurateRip database
Copy OK

Track 5 Filename C:\Paul Young - No Parlez\Disc 1 of 2\05 - No Parlez.wav Peak level 98.0 %
Track quality 100.0 %
Test CRC 487FD374
Copy CRC 487FD374
Track not present in AccurateRip database
Copy OK

Track 6 Filename C:\Paul Young - No Parlez\Disc 1 of 2\06 - Love Of The Common People.wav Peak level 97.9 %
Track quality 99.9 %
Test CRC F803FD40
Copy CRC F803FD40
Track not present in AccurateRip database
Copy OK

Track 7 Filename C:\Paul Young - No Parlez\Disc 1 of 2\07 - Oh Women.wav Peak level 97.8 %
Track quality 100.0 %
Test CRC 5324A4C3
Copy CRC 5324A4C3
Track not present in AccurateRip database
Copy OK

Track 8 Filename C:\Paul Young - No Parlez\Disc 1 of 2\08 - Iron Out The Rough Spots.wav Peak level 99.9 %
Track quality 100.0 %
Test CRC 695F7B6D
Copy CRC 695F7B6D
Track not present in AccurateRip database
Copy OK

Track 9 Filename C:\Paul Young - No Parlez\Disc 1 of 2\09 - Broken Man.wav Peak level 97.7 %
Track quality 100.0 %
Test CRC 5E27386E
Copy CRC 5E27386E
Track not present in AccurateRip database
Copy OK

Track 10 Filename C:\Paul Young - No Parlez\Disc 1 of 2\10 - Tender Trap.wav Peak level 97.7 %
Track quality 100.0 %
Test CRC BE963551
Copy CRC BE963551
Track not present in AccurateRip database
Copy OK

Track 11 Filename C:\Paul Young - No Parlez\Disc 1 of 2\11 - Sex.wav Peak level 98.4 %
Track quality 100.0 %
Test CRC 28BEEBED
Copy CRC 28BEEBED
Track not present in AccurateRip database
Copy OK

None of the tracks are present in the AccurateRip database

No errors occurred

End of status report

Exact Audio Copy V0.99 prebeta 4 from 23. January 2008

EAC extraction logfile from 4. October 2008, 15:02

Paul Young / No Parlez (Bonus Disc)

Used drive : TSSTcorpCD/DVDW SH-S182M Adapter: 0 ID: 1

Read mode : Secure
Utilize accurate stream : Yes
Defeat audio cache : Yes
Make use of C2 pointers : No

Read offset correction

: 6
Overread into Lead-In and Lead-Out : No
Fill up missing offset samples with silence : Yes
Delete leading and trailing silent blocks : No
Null samples used in CRC calculations : Yes
Used interface
: Native Win32 interface for Win NT & 2000
Gap handling
: Appended to previous track

Used output format : User Defined Encoder
Selected bitrate : 192 kBit/s
Quality : High
Add ID3 tag : No
Command line compressor : C:\Program Files (x86)\FLAC\flac.exe
Additional command line options : -V -8 -T "artist=%a" -T "title=%t" -T "album=%g" -T "date=%y" -T "tracknumber=%n" -T "genre=%m" %s

TOC of the extracted CD Track | Start | Length | Start sector | End sector
--1 | 0:01.00 | 7:31.11 | 75 | 33910 2 | 7:32.11 | 7:28.50 | 33911 | 67560 3 | 15:00.61 | 5:51.28 | 67561 | 93913 4 | 20:52.14 | 4:10.65 | 93914 | 112728 5 | 25:03.04 | 3:37.40 | 112729 | 129043 6 | 28:40.44 | 5:39.17 | 129044 | 154485 7 | 34:19.61 | 3:49.53 | 154486 | 171713 8 | 38:09.39 | 3:50.55 | 171714 | 189018 9 | 42:00.19 | 5:57.22 | 189019 | 215815
10 | 47:57.41 | 5:59.01 | 215816 | 242741

Track 1 Filename C:\Paul Young - No Parlez\Disc 2 of 2\01 - Come Back And Stay (12' Mix).wav Pre-gap length 0:00:03.00 Peak level 97.7 %
Track quality 100.0 %
Test CRC 4C254722
Copy CRC 4C254722
Track not present in AccurateRip database
Copy OK

Track 2 Filename C:\Paul Young - No Parlez\Disc 2 of 2\02 - Iron Out The Rough Spots (12' Mix).wav Peak level 99.4 %
Track quality 100.0 %
Test CRC 3C4BB099
Copy CRC 3C4BB099
Track not present in AccurateRip database
Copy OK

Track 3 Filename C:\Paul Young - No Parlez\Disc 2 of 2\03 - Love Of The Common People (12' Mix).wav Peak level 98.4 %
Track quality 100.0 %
Test CRC 9DBC269F
Copy CRC 9DBC269F
Track not present in AccurateRip database
Copy OK

Track 4 Filename C:\Paul Young - No Parlez\Disc 2 of 2\04 - Behind Your Smile.wav Peak level 100.0 %
Track quality 100.0 %
Test CRC 0A70681C
Copy CRC 0A70681C
Track not present in AccurateRip database
Copy OK

Track 5 Filename C:\Paul Young - No Parlez\Disc 2 of 2\05 - I've Been Lonely For So Long.wav Peak level 97.7 %
Track quality 100.0 %
Test CRC B886244A
Copy CRC B886244A
Track not present in AccurateRip database
Copy OK

Track 6 Filename C:\Paul Young - No Parlez\Disc 2 of 2\06 - Yours.wav Peak level 97.8 %
Track quality 100.0 %
Test CRC B36B5988
Copy CRC B36B5988
Track not present in AccurateRip database
Copy OK

Track 7 Filename C:\Paul Young - No Parlez\Disc 2 of 2\07 - Sex (Demo).wav Peak level 100.0 %
Track quality 100.0 %
Test CRC 427F538E
Copy CRC 427F538E
Track not present in AccurateRip database
Copy OK

Track 8 Filename C:\Paul Young - No ParlezDisc 2 of 2\08 - Pale Shelter (Demo).wav Peak level 99.1 %
Track quality 100.0 %
Test CRC 0BCC81C1
Copy CRC 0BCC81C1
Track not present in AccurateRip database
Copy OK

Track 9 Filename C:\Paul Young - No Parlez\Disc 2 of 2\09 - Better To Have And Don't Need (Live).wav Peak level 97.7 %
Track quality 99.9 %
Test CRC 10F0E02E
Copy CRC 10F0E02E
Track not present in AccurateRip database
Copy OK

Track 10 Filename C:\Paul Young - No Parlez\Disc 2 of 2\10 - Wherever I Lay My Hat (That's My Home) (Live).wav Peak level 98.5 %
Track quality 100.0 %
Test CRC 83848840
Copy CRC 83848840
Track not present in AccurateRip database
Copy OK

None of the tracks are present in the AccurateRip database

No errors occurred

End of status report

Many thanks to the original uploader: KingMcQueen
DOWNLOAD LINKS:
Buy Premium To Support Me & Get Resumable Support & Max Speed


Links are Interchangeable - No Password - Single Extraction

Direct Download

Tags: Parlez, Anniversary

Paul Young - No Parlez (1983) [25th Anniversary Edition 2008] 2CD Download via Hotfile Rapidshare Fileserve Megaupload & FileSonic, Paul Young - No Parlez (1983) [25th Anniversary Edition 2008] 2CD free torrent downloads included crack, serial, keygen.


Attention!Information

Members of Guest cannot leave comments.