Bullet For My Valentine - Venom (2015) [Sony SICP 4510, Japan]

Download Now

Bullet For My Valentine - Venom (2015) [Sony SICP 4510, Japan]

Bullet For My Valentine - Venom (2015)
EAC | Flac(Image) + Cue + Log & MP3 CBR 320Kbps
Sony, SICP 4510 | ~ 517 or 167 Mb | Scans(600dpi, jpg) -> 168 Mb
Melodic Metalcore / Heavy Metal

"The Welsh metal unit's fifth studio long-player, the aptly named Venom finds Bullet for My Valentine on the defensive, offering up a meaty and aggressive 11-track set aimed squarely at diffusing some of the concerns that fans voiced upon the release of 2013's uneven Temper Temper. After a short ambient intro, the band wastes little time in getting their hands dirty, digging into the first single "No Way Out" with all the delicacy of a lion pack descending on a broken-legged gazelle..."


Tracklist:

01. V (1:27)
02. No Way Out (3:54)
03. Army Of Noise (4:18)
04. Worthless (3:18)
05. You Want A Battle ? (Here's A War) (4:15)
06. Broken (3:40)
07. Venom (3:55)
08. The Harder The Heart (The Harder It Breaks) (4:00)
09. Skin (3:59)
10. Hell Or High Water (4:37)
11. Pariah (3:48)
12. Playing God (3:52)
13. Run For Your Life (3:35)
14. In Loving Memory (Demo Version) (4:02)
15. Raising Hell (4:36)
16. Live Medley (Featuring Hands Of Blood, Room 409, Hearts Burst Into Fire, Begg... (5:10)
17. 4 Words To Choke Upon (Live) (3:58)
18. Raising Hell (Live) (4:38)

Exact Audio Copy V1.0 beta 4 from 7. December 2014

EAC extraction logfile from 21. August 2015, 19:07

Bullet For My Valentine / Venom (Japan SICP 4510)

Used drive : ASUS DRW-24F1ST b Adapter: 1 ID: 0

Read mode : Secure
Utilize accurate stream : Yes
Defeat audio cache : Yes
Make use of C2 pointers : No

Read offset correction

: 6
Overread into Lead-In and Lead-Out : No
Fill up missing offset samples with silence : Yes
Delete leading and trailing silent blocks : No
Null samples used in CRC calculations : Yes
Used interface
: Native Win32 interface for Win NT & 2000

Used output format : User Defined Encoder
Selected bitrate : 768 kBit/s
Quality : High
Add ID3 tag : No
Command line compressor : C:\Program Files (x86)\Exact Audio Copy\FLAC\FLAC.EXE
Additional command line options : -8 -V -T "ARTIST=%artist%" -T "TITLE=%title%" -T "ALBUM=%albumtitle%" -T "DATE=%year%" -T "TRACKNUMBER=%tracknr%" -T "GENRE=%genre%" -T "COMMENT=%comment%" -T "BAND=%albuminterpret%" -T "ALBUMARTIST=%albuminterpret%" -T "COMPOSER=%composer%" %haslyrics%--tag-from-file=LYRICS="%lyricsfile%"%haslyrics% -T "DISCNUMBER=%cdnumber%" -T "TOTALDISCS=%totalcds%" -T "TOTALTRACKS=%numtracks%" %hascover%--picture="%coverfile%"%hascover% %source% -o %dest%

TOC of the extracted CD Track | Start | Length | Start sector | End sector
--1 | 0:00.00 | 1:26.38 | 0 | 6487 2 | 1:26.38 | 3:53.70 | 6488 | 24032 3 | 5:20.33 | 4:18.13 | 24033 | 43395 4 | 9:38.46 | 3:18.08 | 43396 | 58253 5 | 12:56.54 | 4:14.46 | 58254 | 77349 6 | 17:11.25 | 3:39.72 | 77350 | 93846 7 | 20:51.22 | 3:54.62 | 93847 | 111458 8 | 24:46.09 | 4:00.25 | 111459 | 129483 9 | 28:46.34 | 3:59.14 | 129484 | 147422
10 | 32:45.48 | 4:36.54 | 147423 | 168176
11 | 37:22.27 | 3:47.64 | 168177 | 185265
12 | 41:10.16 | 3:52.12 | 185266 | 202677
13 | 45:02.28 | 3:34.65 | 202678 | 218792
14 | 48:37.18 | 4:02.36 | 218793 | 236978
15 | 52:39.54 | 4:35.49 | 236979 | 257652
16 | 57:15.28 | 5:10.16 | 257653 | 280918
17 | 62:25.44 | 3:57.67 | 280919 | 298760
18 | 66:23.36 | 4:38.02 | 298761 | 319612

Range status and errors

Selected range Filename E:\EAC\Bullet For My Valentine - Venom (Japan SICP 4510).wav Peak level 100.0 %
Extraction speed 10.4 X
Range quality 100.0 %
Test CRC F9DC1CCB
Copy CRC F9DC1CCB
Copy OK

No errors occurred


AccurateRip summary

Track 1 not present in database
Track 2 not present in database
Track 3 not present in database
Track 4 not present in database
Track 5 not present in database
Track 6 not present in database
Track 7 not present in database
Track 8 not present in database
Track 9 not present in database
Track 10 not present in database
Track 11 not present in database
Track 12 not present in database
Track 13 not present in database
Track 14 not present in database
Track 15 not present in database
Track 16 not present in database
Track 17 not present in database
Track 18 not present in database

None of the tracks are present in the AccurateRip database

End of status report

==== Log checksum AE5C5562D785A0840198BC76E2FEBF81669E36F420A87E927BF76C0E344B4027 ====

foobar2000 1.2.9 / Dynamic Range Meter 1.1.1
log date: 2015-08-28 17:47:24

Analyzed: Bullet For My Valentine / Venom (Japan SICP 4510)

DR Peak RMS Duration Track

DR9 -2.30 dB -15.36 dB 1:27 01-V
DR7 -0.16 dB -8.02 dB 3:54 02-No Way Out
DR6 -0.16 dB -7.48 dB 4:18 03-Army Of Noise
DR6 -0.16 dB -7.52 dB 3:18 04-Worthless
DR6 -0.16 dB -7.55 dB 4:15 05-You Want A Battle ? (Here's A War)
DR6 -0.16 dB -7.12 dB 3:40 06-Broken
DR6 -0.16 dB -7.53 dB 3:55 07-Venom
DR6 -0.16 dB -7.55 dB 4:00 08-The Harder The Heart (The Harder It Breaks)
DR7 -0.16 dB -7.65 dB 3:59 09-Skin
DR6 -0.16 dB -7.59 dB 4:37 10-Hell Or High Water
DR6 -0.16 dB -7.33 dB 3:48 11-Pariah
DR7 -0.16 dB -8.39 dB 3:52 12-Playing God
DR6 -0.16 dB -7.53 dB 3:35 13-Run For Your Life
DR8 -0.16 dB -8.86 dB 4:02 14-In Loving Memory (Demo Version)
DR5 -1.13 dB -7.29 dB 4:36 15-Raising Hell
DR8 0.00 dB -9.31 dB 5:10 16-Live Medley (Featuring Hands Of Blood, Room 409, Hearts Burst Into Fire, Begg...
DR9 0.00 dB -9.96 dB 3:58 17-4 Words To Choke Upon (Live)
DR9 0.00 dB -9.80 dB 4:38 18-Raising Hell (Live)

Number of tracks: 18
Official DR value: DR7

Samplerate: 44100 Hz
Channels: 2
Bits per sample: 16
Bitrate: 988 kbps
Codec: FLAC

[CUETools log; Date: 28.08.2015 17:47:15; Version: 2.1.4]
[CTDB TOCID: CTG8YCQ0RqY.zC.zWZCmiW9D2rI-] found.
Track | CTDB Status
1 | (10/10) Accurately ripped
2 | (10/10) Accurately ripped
3 | (10/10) Accurately ripped
4 | (10/10) Accurately ripped
5 | (10/10) Accurately ripped
6 | (10/10) Accurately ripped
7 | (10/10) Accurately ripped
8 | (10/10) Accurately ripped
9 | (10/10) Accurately ripped
10 | (10/10) Accurately ripped
11 | (10/10) Accurately ripped
12 | (10/10) Accurately ripped
13 | (10/10) Accurately ripped
14 | (10/10) Accurately ripped
15 | (10/10) Accurately ripped
16 | (10/10) Accurately ripped
17 | (10/10) Accurately ripped
18 | (10/10) Accurately ripped
[AccurateRip ID: 002ba61d-025134d5-1410a512] disk not present in database.

Track Peak [ CRC32 ] [W/O NULL] [ LOG ]
-- 100,0 [F9DC1CCB] [9BE89587] CRC32
01 76,6 [1E38B20C] [5BD2A638]
02 98,1 [A46B9F3D] [E21B9D6A]
03 98,1 [39756F97] [E9741B94]
04 98,1 9D9CA81 [67F6626F]
05 98,1 [49081336] [D6239D1D]
06 98,1 [991313C7] [6061B6A6]
07 98,1 8228F15 [9F4B9B60]
08 98,1 [11CA0C24] [89B32FB5]
09 98,1 [A4CB7316] [6687C8B1]
10 98,1 [0699D10C] CB9A6D3
11 98,1 [84A9CC9E] [6E7E5E0B]
12 98,1 [226B0C9D] [FE5520A2]
13 98,1 [D7B364D8] [AA82F2F5]
14 98,1 [89C34A69] [D96C922E]
15 87,7 CBAD085 [142DB5DF]
16 100,0 [54C5AFB8] [639B320F]
17 100,0 [1D094B3D] [3673C86A]
18 100,0 [8CECA805] [5772AF23]

Bullet For My Valentine - Venom (2015) [Sony SICP 4510, Japan]

All thanks go to metalhead939

Download Bullet For My Valentine - Venom (2015):


DOWNLOAD:
Buy Premium From My Links To Get Resumable Support & Max Speed & To Support Me


Links are Interchangeable - No Password

Direct Download

Tags: Bullet, Valentine

Bullet For My Valentine - Venom (2015) [Sony SICP 4510, Japan] Download via Hotfile Rapidshare Fileserve Megaupload & FileSonic, Bullet For My Valentine - Venom (2015) [Sony SICP 4510, Japan] free torrent downloads included crack, serial, keygen.


Attention!Information

Members of Guest cannot leave comments.