Rod Stewart - Blondes Have More Fun (1978)

Download Now

Rod Stewart - Blondes Have More Fun (1978)

Rod Stewart - Blondes Have More Fun (1978)
EAC | Flac(Image) + Cue + Log & MP3 CBR 320Kbps
Warner Bros. 3261-2 | ~ 256 or 108 Mb | Scans(png) -> 192 Mb
Classic Rock

"Blondes Have More Fun (with title adding on the back sleeve ...Or Do They?) is Rod Stewart's ninth album, released in November 1978. This album was also released as a picture disc..."


Tracklist:

01. Da Ya Think I'm Sexy? (Rod Stewart, Carmine Appice, Duane Hitchings) 05:30
02. Dirty Weekend (Stewart, Gary Grainger) 02:35
03. Ain't Love A Bitch (Stewart, Grainger) 04:38
04. The Best Days Of My Life (Stewart, Jim Cregan) 04:21
05. Is That The Thanks I Get? (Stewart, Cregan) 04:32
06. Attractive Female Wanted (Stewart, Grainger) 04:16
07. Blondes (Have More Fun) (Stewart, Cregan) 03:47
08. Last Summer (Stewart, Philip Chen) 04:06
09. Standin' In The Shadows Of Love (Lamont Dozier, Eddie Holland, Brian Holland) 04:29
10. Scarred And Scared (Stewart, Grainger) 04:51

Exact Audio Copy V1.0 beta 3 from 29. August 2011

EAC extraction logfile from 26. August 2015, 0:02

Rod Stewart / Blondes Have More Fun (3261-2)

Used drive : SONY CD-RW CRX210E1 Adapter: 0 ID: 1

Read mode : Secure
Utilize accurate stream : Yes
Defeat audio cache : Yes
Make use of C2 pointers : No

Read offset correction

: 6
Overread into Lead-In and Lead-Out : No
Fill up missing offset samples with silence : Yes
Delete leading and trailing silent blocks : No
Null samples used in CRC calculations : Yes
Used interface
: Native Win32 interface for Win NT & 2000

Used output format : Internal WAV Routines
Sample format : 44.100 Hz; 16 Bit; Stereo

TOC of the extracted CD Track | Start | Length | Start sector | End sector
--1 | 0:00.33 | 5:30.30 | 33 | 24812 2 | 5:30.63 | 2:35.62 | 24813 | 36499 3 | 8:06.50 | 4:38.65 | 36500 | 57414 4 | 12:45.40 | 4:21.40 | 57415 | 77029 5 | 17:07.05 | 4:32.28 | 77030 | 97457 6 | 21:39.33 | 4:16.47 | 97458 | 116704 7 | 25:56.05 | 3:47.35 | 116705 | 133764 8 | 29:43.40 | 4:06.03 | 133765 | 152217 9 | 33:49.43 | 4:29.30 | 152218 | 172422
10 | 38:18.73 | 4:51.67 | 172423 | 194314

Range status and errors

Selected range Filename D:\Ready.zp\Rod Stewart - Blondes Have More Fun (3261-2).wav Peak level 98.4 %
Extraction speed 14.6 X
Range quality 100.0 %
Test CRC BE1068AC
Copy CRC BE1068AC
Copy OK

No errors occurred


AccurateRip summary

Track 1 accurately ripped (confidence 6) [094AD0C6] (AR v2)
Track 2 accurately ripped (confidence 6) [18F24AD8] (AR v2)
Track 3 accurately ripped (confidence 6) [E200844B] (AR v2)
Track 4 accurately ripped (confidence 6) [073DAB0D] (AR v2)
Track 5 accurately ripped (confidence 7) [89B9AB08] (AR v2)
Track 6 accurately ripped (confidence 7) [630AF792] (AR v2)
Track 7 accurately ripped (confidence 7) [7296B672] (AR v2)
Track 8 accurately ripped (confidence 6) [E9E6C9CF] (AR v2)
Track 9 accurately ripped (confidence 7) [E1119693] (AR v2)
Track 10 accurately ripped (confidence 6) [187993CF] (AR v2)

All tracks accurately ripped

End of status report

==== Log checksum 5559174CC25C81933CD0089015CDF0E19888EC040EB5C91051125162425C47BC ====

foobar2000 1.2.9 / Dynamic Range Meter 1.1.1
log date: 2015-08-28 12:42:05

Analyzed: Rod Stewart / Blondes Have More Fun (3261-2)

DR Peak RMS Duration Track

DR15 -0.13 dB -16.31 dB 5:30 01-Da Ya Think I'm Sexy?
DR12 -1.30 dB -15.52 dB 2:36 02-Dirty Weekend
DR14 -2.08 dB -18.66 dB 4:39 03-Ain't Love A Bitch
DR12 -5.54 dB -20.87 dB 4:22 04-The Best Days Of My Life
DR13 -2.86 dB -18.74 dB 4:32 05-Is That The Thanks I Get?
DR14 -2.37 dB -19.31 dB 4:17 06-Attractive Female Wanted
DR13 -2.16 dB -16.89 dB 3:47 07-Blondes (Have More Fun)
DR14 -2.97 dB -19.56 dB 4:06 08-Last Summer
DR13 -0.36 dB -16.45 dB 4:29 09-Standin' In The Shadows Of Love
DR15 -1.11 dB -20.10 dB 4:52 10-Scarred And Scared

Number of tracks: 10
Official DR value: DR13

Samplerate: 44100 Hz
Channels: 2
Bits per sample: 16
Bitrate: 770 kbps
Codec: FLAC

[CUETools log; Date: 26.08.2015 12:31:35; Version: 2.1.4]
Pregap length 00:00:33.
[CTDB TOCID: Zksg2C4VFcILwxlzfK1eK1yuGPk-] found.
Track | CTDB Status
1 | (9/9) Accurately ripped
2 | (9/9) Accurately ripped
3 | (9/9) Accurately ripped
4 | (9/9) Accurately ripped
5 | (9/9) Accurately ripped
6 | (9/9) Accurately ripped
7 | (9/9) Accurately ripped
8 | (9/9) Accurately ripped
9 | (9/9) Accurately ripped
10 | (9/9) Accurately ripped
[AccurateRip ID: 00103713-00815af5-760a1e0a] found.
Track [ CRC | V2 ] Status
01 [fceb589a|094ad0c6] (09+06/56) Accurately ripped
02 [403acf75|18f24ad8] (11+06/57) Accurately ripped
03 [524d8360|e200844b] (11+06/57) Accurately ripped
04 [db782c7d|073dab0d] (11+06/57) Accurately ripped
05 [8faa6d5b|89b9ab08] (11+07/56) Accurately ripped
06 [2bf9dd25|630af792] (11+07/57) Accurately ripped
07 [9190c200|7296b672] (11+07/57) Accurately ripped
08 [ce124de0|e9e6c9cf] (11+06/56) Accurately ripped
09 [a840becb|e1119693] (11+07/57) Accurately ripped
10 [4256f825|187993cf] (11+06/54) Accurately ripped
Offsetted by -905:
01 [94b996e6] (02/56) Accurately ripped
02 [234aa3f2] (02/57) Accurately ripped
03 48143f8 (02/57) Accurately ripped
04 [f44ea128] (02/57) Accurately ripped
05 [687a6d91] (02/56) Accurately ripped
06 [7318f925] (02/57) Accurately ripped
07 [7aedba7d] (02/57) Accurately ripped
08 f1b073f (02/56) Accurately ripped
09 [999a1f3c] (02/57) Accurately ripped
10 [32704f7d] (02/54) Accurately ripped
Offsetted by 6:
01 [9ffaab12] (02/56) Accurately ripped
02 [e3ccff34] (03/57) Accurately ripped
03 [69f02d8f] (03/57) Accurately ripped
04 [ae0b8b0b] (03/57) Accurately ripped
05 [d4617b37] (02/56) Accurately ripped
06 [f5c62815] (02/57) Accurately ripped
07 89f40ca (02/57) Accurately ripped
08 [e87a57f6] (02/56) Accurately ripped
09 [f59308d5] (02/57) Accurately ripped
10 [df282095] (02/54) Accurately ripped
Offsetted by 133:
01 [c61451fe] (16/56) Accurately ripped
02 [fef9ff2f] (15/57) Accurately ripped
03 [abe26725] (14/57) Accurately ripped
04 [41e5871e] (15/57) Accurately ripped
05 [d82ecb3d] (15/56) Accurately ripped
06 [f27a4e02] (15/57) Accurately ripped
07 [7d33760a] (15/57) Accurately ripped
08 [9769d81d] (15/56) Accurately ripped
09 [da3627fe] (15/57) Accurately ripped
10 [2bc8a32d] (14/54) Accurately ripped
Offsetted by -122:
01 4092112 (00/56) No match (V2 was not tested)
02 [cc99a248] (00/57) No match (V2 was not tested)
03 [db0e313b] (00/57) No match (V2 was not tested)
04 [cc6e548b] (00/57) No match (V2 was not tested)
05 [6fcafe37] (00/56) No match (V2 was not tested)
06 [1ab0062e] (00/57) No match (V2 was not tested)
07 [ca12f989] (00/57) No match (V2 was not tested)
08 5242b76 (00/56) No match (V2 was not tested)
09 [840cdd55] (00/57) No match (V2 was not tested)
10 [230f6c95] (00/54) No match (V2 was not tested)
Offsetted by 1651:
01 [ec38d296] (00/56) No match (V2 was not tested)
02 [772a21d7] (00/57) No match (V2 was not tested)
03 [2fbb1533] (00/57) No match (V2 was not tested)
04 [5d89f974] (00/57) No match (V2 was not tested)
05 [c1177da9] (00/56) No match (V2 was not tested)
06 45c3a38 (00/57) No match (V2 was not tested)
07 [6051ed6e] (00/57) No match (V2 was not tested)
08 03bcfdb (00/56) No match (V2 was not tested)
09 [448953e0] (00/57) No match (V2 was not tested)
10 [267d99dd] (00/54) No match (V2 was not tested)

Track Peak [ CRC32 ] [W/O NULL] [ LOG ]
-- 98,4 E1068AC [7AD82790] CRC32
01 98,4 [3FBF4F30] [62D60B23]
02 86,1 [DE6104E1] [35C819AD]
03 78,7 495D48D [67315B8D]
04 52,8 [3DA0B191] [85CD0B72]
05 71,9 [DB7B4270] [9883EE7B]
06 76,1 [AD236E71] [810D78E2]
07 78,0 [00D73499] [A6D47237]
08 71,0 [47869AB0] [93D5B494]
09 95,9 [13D3237D] [5EEA2219]
10 87,9 [D48795DA] [1D27AAB6]

Rod Stewart - Blondes Have More Fun (1978)

All thanks go to Ready.zp



Download Rod Stewart - Blondes Have More Fun (1978):


DOWNLOAD LINKS
(Premium Recommended)


Links are Interchangeable - No Password - Single Extraction

Direct Download

Tags: Stewart, Blondes

Rod Stewart - Blondes Have More Fun (1978) Download via Hotfile Rapidshare Fileserve Megaupload & FileSonic, Rod Stewart - Blondes Have More Fun (1978) free torrent downloads included crack, serial, keygen.


Attention!Information

Members of Guest cannot leave comments.