Tubeway Army - Tubeway Army (1978) Expanded Remastered Reissue 1998

Download Now

Tubeway Army - Tubeway Army (1978) Expanded Remastered Reissue 1998

Tubeway Army - Tubeway Army (1978) Expanded Remastered Reissue 1998
EAC | FLAC | Tracks (Cue&Log) ~ 493 Mb (incl 5%) | Mp3 (CBR320) ~ 206 Mb (incl 5%) | Scans included
Genre: Punk, New Wave, Post-Punk | Label: Beggars Banquet | # BBL 4 CD | Time: 01:18:12

"The classic self-titled debut by Gary Numan's Tubeway Army was finally reissued by Beggars Banquet, who have done a masterful job remastering the tracks and adding a live set from 1978 as a bonus. In the past, many have felt that Numan's debut disc didn't measure up to his later triumphs (1979's Replicas, 1980's Telekon, etc.), but listening to it today, you discover that it's the most underrated of all his early albums. Numan & the Tubeway Army were one of the first new wave/punk bands (along with Kraftwerk and Devo) to successfully fuse robotic synthesizers with rock & roll. Gary Numan's guitar riffing is more prominent here than on any other of his albums, which gives the tunes a splendid Ziggy Stardust feel at times. Kicking things off with several strong compositions -- "Listen to the Sirens," "The Life Machine," and "Friends" -- the album sags momentarily in the middle ("My Love Is Liquid"), but soon returns to its high standards with "Are You Real?" and "Jo the Waiter." The reissue of Tubeway Army wraps up with the 13-track Living Ornaments '78: Live at the Roxy set, which was previously released only as a bootleg."



Tracklist:

Tubeway Army - Album:

01. Listen To The Sirens (03:05)
02. My Shadow In Vain (02:59)
03. The Life Machine (02:45)
04. Friends (02:30)
05. Something's In The House (04:14)
06. Everyday I Die (02:23)
07. Steel And You (04:44)
08. My Love Is A Liquid (03:33)
09. Are You Real? (03:24)
10. The Dream Police (03:38)
11. Jo The Waiter (02:40)
12. Zero Bars (Mr Smith) (03:12)

Living Ornaments '78 - Live At The Roxy:

13. Positive Thinking (Live) (02:56)
14. Boys (Live) (02:13)
15. Blue Eyes (Live) (02:03)
16. You Don't Know Me (Live) (02:28)
17. My Shadow in Vain (Live) (04:13)
18. Me My Head (Live) (04:10)
19. That's Too Bad (Live) (03:26)
20. Basic J (Live) (03:03)
21. Do Your Best (Live) (02:40)
22. Oh! Didn't I Say (Live) (02:31)
23. I'm A Poseur (Live) (02:30)
24. White Light, White Heat (Live) (02:49)
25. Kill St. Joy (Live) (03:46)


EAC extraction logfile from 24. December 2008, 17:53 for CD
Gary Numan (Tubeway Army) / Tubeway Army & Living Ornaments '78

Used drive : HP DVD Writer 640b Adapter: 0 ID: 0
Read mode : Secure with NO C2, accurate stream, disable cache
Read offset correction : 102
Overread into Lead-In and Lead-Out : No

Used output format : Internal WAV Routines 44.100 Hz; 16 Bit; Stereo

Other options :
Fill up missing offset samples with silence : Yes
Delete leading and trailing silent blocks : No
Native Win32 interface for Win NT & 2000

Track 1
Filename C:\Documents and Settings\HP_Owner\My Documents\My Music\01 - Listen To The Sirens.wav Pre-gap length 0:00:02.00 Peak level 100.0 %
Track quality 100.0 %
Test CRC 6ABC34F4
Copy CRC 6ABC34F4
Copy OK

Track 2
Filename C:\Documents and Settings\HP_Owner\My Documents\My Music\02 - My Shadow In Vain.wav Peak level 100.0 %
Track quality 100.0 %
Test CRC 14D6A250
Copy CRC 14D6A250
Copy OK

Track 3
Filename C:\Documents and Settings\HP_Owner\My Documents\My Music\03 - The Life Machine.wav Peak level 100.0 %
Track quality 100.0 %
Test CRC 6F92078C
Copy CRC 6F92078C
Copy OK

Track 4
Filename C:\Documents and Settings\HP_Owner\My Documents\My Music\04 - Friends.wav Pre-gap length 0:00:00.01 Peak level 100.0 %
Track quality 100.0 %
Test CRC 66378C6D
Copy CRC 66378C6D
Copy OK

Track 5
Filename C:\Documents and Settings\HP_Owner\My Documents\My Music\05 - Something's In The House.wav Peak level 100.0 %
Track quality 100.0 %
Test CRC D60AEEF3
Copy CRC D60AEEF3
Copy OK

Track 6
Filename C:\Documents and Settings\HP_Owner\My Documents\My Music\06 - Everyday I Die.wav Peak level 100.0 %
Track quality 100.0 %
Test CRC A2EEE7A9
Copy CRC A2EEE7A9
Copy OK

Track 7
Filename C:\Documents and Settings\HP_Owner\My Documents\My Music\07 - Steel And You.wav Pre-gap length 0:00:01.17 Peak level 100.0 %
Track quality 99.9 %
Test CRC 73DC4310
Copy CRC 73DC4310
Copy OK

Track 8
Filename C:\Documents and Settings\HP_Owner\My Documents\My Music\08 - My Love Is A Liquid.wav Peak level 100.0 %
Track quality 100.0 %
Test CRC 383C41E3
Copy CRC 383C41E3
Copy OK

Track 9
Filename C:\Documents and Settings\HP_Owner\My Documents\My Music\09 - Are You Real .wav Pre-gap length 0:00:00.01 Peak level 100.0 %
Track quality 100.0 %
Test CRC 5E01ACD3
Copy CRC 5E01ACD3
Copy OK

Track 10
Filename C:\Documents and Settings\HP_Owner\My Documents\My Music\10 - The Dream Police.wav Pre-gap length 0:00:01.40 Peak level 100.0 %
Track quality 100.0 %
Test CRC EA98467E
Copy CRC EA98467E
Copy OK

Track 11
Filename C:\Documents and Settings\HP_Owner\My Documents\My Music\11 - Jo The Waiter.wav Peak level 100.0 %
Track quality 100.0 %
Test CRC 61EF6BF8
Copy CRC 61EF6BF8
Copy OK

Track 12
Filename C:\Documents and Settings\HP_Owner\My Documents\My Music\12 - Zero Bars (Mr Smith).wav Pre-gap length 0:00:01.13 Peak level 100.0 %
Track quality 100.0 %
Test CRC 90ACC14E
Copy CRC 90ACC14E
Copy OK

Track 13
Filename C:\Documents and Settings\HP_Owner\My Documents\My Music\13 - Positive Thinking (Live).wav Peak level 100.0 %
Track quality 100.0 %
Test CRC 19BB2C27
Copy CRC 19BB2C27
Copy OK

Track 14
Filename C:\Documents and Settings\HP_Owner\My Documents\My Music\14 - Boys (Live).wav Peak level 100.0 %
Track quality 100.0 %
Test CRC 17B07C8C
Copy CRC 17B07C8C
Copy OK

Track 15
Filename C:\Documents and Settings\HP_Owner\My Documents\My Music\15 - Blue Eyes (Live).wav Peak level 100.0 %
Track quality 99.9 %
Test CRC 52B436F0
Copy CRC 52B436F0
Copy OK

Track 16
Filename C:\Documents and Settings\HP_Owner\My Documents\My Music\16 - You Don't Know Me (Live).wav Peak level 100.0 %
Track quality 100.0 %
Test CRC F71ACE06
Copy CRC F71ACE06
Copy OK

Track 17
Filename C:\Documents and Settings\HP_Owner\My Documents\My Music\17 - My Shadow in Vain (Live).wav Peak level 100.0 %
Track quality 100.0 %
Test CRC 64D772BF
Copy CRC 64D772BF
Copy OK

Track 18
Filename C:\Documents and Settings\HP_Owner\My Documents\My Music\18 - Me My Head (Live).wav Peak level 100.0 %
Track quality 100.0 %
Test CRC C0EACE8D
Copy CRC C0EACE8D
Copy OK

Track 19
Filename C:\Documents and Settings\HP_Owner\My Documents\My Music\19 - That's Too Bad (Live).wav Peak level 100.0 %
Track quality 100.0 %
Test CRC F04BF8EF
Copy CRC F04BF8EF
Copy OK

Track 20
Filename C:\Documents and Settings\HP_Owner\My Documents\My Music\20 - Basic J (Live).wav Peak level 100.0 %
Track quality 100.0 %
Test CRC 8ED5E8F9
Copy CRC 8ED5E8F9
Copy OK

Track 21
Filename C:\Documents and Settings\HP_Owner\My Documents\My Music\21 - Do Your Best (Live).wav Peak level 100.0 %
Track quality 99.9 %
Test CRC 4FDF7E1E
Copy CRC 4FDF7E1E
Copy OK

Track 22
Filename C:\Documents and Settings\HP_Owner\My Documents\My Music\22 - Oh! Didn't I Say (Live).wav Peak level 100.0 %
Track quality 100.0 %
Test CRC CF10931B
Copy CRC CF10931B
Copy OK

Track 23
Filename C:\Documents and Settings\HP_Owner\My Documents\My Music\23 - I'm A Poseur (Live).wav Peak level 100.0 %
Track quality 99.9 %
Test CRC ACE90CCB
Copy CRC ACE90CCB
Copy OK

Track 24
Filename C:\Documents and Settings\HP_Owner\My Documents\My Music\24 - White Light, White Heat (Live).wav Peak level 100.0 %
Track quality 100.0 %
Test CRC 411ABD9A
Copy CRC 411ABD9A
Copy OK

Track 25
Filename C:\Documents and Settings\HP_Owner\My Documents\My Music\25 - Kill St. Joy (Live).wav Peak level 100.0 %
Track quality 100.0 %
Test CRC 371062FA
Copy CRC 371062FA
Copy OK

No errors occured

End of status report

[CUETools log; Date: 25.08.2015 14:43:07; Version: 2.1.4]
[CTDB TOCID: MvuYY9hTtgA7kXUTEeTxlo2ZxS8-] found.
Track | CTDB Status
1 | (6/6) Accurately ripped
2 | (6/6) Accurately ripped
3 | (6/6) Accurately ripped
4 | (6/6) Accurately ripped
5 | (6/6) Accurately ripped
6 | (6/6) Accurately ripped
7 | (6/6) Accurately ripped
8 | (6/6) Accurately ripped
9 | (6/6) Accurately ripped
10 | (6/6) Accurately ripped
11 | (6/6) Accurately ripped
12 | (6/6) Accurately ripped
13 | (6/6) Accurately ripped
14 | (6/6) Accurately ripped
15 | (6/6) Accurately ripped
16 | (6/6) Accurately ripped
17 | (6/6) Accurately ripped
18 | (6/6) Accurately ripped
19 | (6/6) Accurately ripped
20 | (6/6) Accurately ripped
21 | (6/6) Accurately ripped
22 | (6/6) Accurately ripped
23 | (6/6) Accurately ripped
24 | (6/6) Accurately ripped
25 | (6/6) Accurately ripped
[AccurateRip ID: 0046950f-04f440d7-9c125319] found.
Track [ CRC | V2 ] Status
01 [2a1d8d14|708e80fb] (02+09/37) Accurately ripped
02 [23645129|d3e4946e] (02+08/36) Accurately ripped
03 [711cdc4e|fef4e081] (02+09/37) Accurately ripped
04 [cdd28c43|c1a514a8] (02+09/37) Accurately ripped
05 [a7f636e5|1e447c0e] (02+09/35) Accurately ripped
06 [503709d0|e2c306ef] (02+08/35) Accurately ripped
07 [ad0ed428|ddc53b73] (02+09/37) Accurately ripped
08 [ad29e12d|32abb0a8] (02+09/37) Accurately ripped
09 [a449d744|89fe4f2a] (02+09/36) Accurately ripped
10 [645d7af6|2d6233d1] (02+08/36) Accurately ripped
11 [6a8ac6b8|1a8d9b97] (02+08/35) Accurately ripped
12 [8f75243f|7a697d5b] (02+08/36) Accurately ripped
13 9c9149e|cdd297e3 (02+09/36) Accurately ripped
14 [dbceb8ab|097097c5] (02+09/36) Accurately ripped
15 [76521c1f|78f5cd49] (02+09/36) Accurately ripped
16 [f6f22047|aea6e7ce] (02+09/36) Accurately ripped
17 [02cdfbc9|0162010f] (02+09/36) Accurately ripped
18 [55375dce|3f36b5ed] (02+09/36) Accurately ripped
19 [c578a934|9d2a68ac] (02+09/36) Accurately ripped
20 [aae01bfc|c7923fc3] (02+09/36) Accurately ripped
21 [00735f7a|31e59b8c] (02+09/36) Accurately ripped
22 [60f8364e|7bd01e82] (02+09/36) Accurately ripped
23 [28235bec|160ca21f] (02+09/36) Accurately ripped
24 [1eb27424|6936b6ca] (02+09/36) Accurately ripped
25 [cff23c6b|8562cb8a] (02+08/35) Accurately ripped
Offsetted by 1512:
01 [e34e5eca] (07/37) Accurately ripped
02 [8e5f6460] (07/36) Accurately ripped
03 [0e2af183] (07/37) Accurately ripped
04 d9ffec8 (07/37) Accurately ripped
05 63a359f (07/35) Accurately ripped
06 [7d611ddf] (06/35) Accurately ripped
07 [52879bf5] (07/37) Accurately ripped
08 [0c00eecf] (07/37) Accurately ripped
09 [93f557fd] (06/36) Accurately ripped
10 [86c88f52] (07/36) Accurately ripped
11 [502fd904] (06/35) Accurately ripped
12 [7d939677] (07/36) Accurately ripped
13 [ecf89ff7] (06/36) Accurately ripped
14 [8d20c492] (06/36) Accurately ripped
15 [13338840] (06/36) Accurately ripped
16 [c51a19a3] (06/36) Accurately ripped
17 [4be47dc7] (06/36) Accurately ripped
18 [fa103234] (06/36) Accurately ripped
19 [0c8b7b6a] (06/36) Accurately ripped
20 [7507d097] (06/36) Accurately ripped
21 [c089139a] (06/36) Accurately ripped
22 [813d4f56] (06/36) Accurately ripped
23 [4a027c5d] (06/36) Accurately ripped
24 [d0954418] (06/36) Accurately ripped
25 [5dd126dc] (06/35) Accurately ripped
Offsetted by 92:
01 7ee226e (00/37) No match (V2 was not tested)
02 [91f37dd6] (00/36) No match (V2 was not tested)
03 [8031d03e] (00/37) No match (V2 was not tested)
04 [1b4efa90] (00/37) No match (V2 was not tested)
05 [21d6262a] (00/35) No match (V2 was not tested)
06 [3e45afab] (00/35) No match (V2 was not tested)
07 [a741c108] (00/37) No match (V2 was not tested)
08 [c2704c15] (00/37) No match (V2 was not tested)
09 [116fc38c] (00/36) No match (V2 was not tested)
10 541d95a (00/36) No match (V2 was not tested)
11 [0405af70] (00/35) No match (V2 was not tested)
12 [52c58e13] (00/36) No match (V2 was not tested)
13 [e5bf584e] (00/36) No match (V2 was not tested)
14 [39fe6122] (00/36) No match (V2 was not tested)
15 [159129fb] (00/36) No match (V2 was not tested)
16 [9d6d2df0] (00/36) No match (V2 was not tested)
17 [9d2ffd52] (00/36) No match (V2 was not tested)
18 [4278cef1] (00/36) No match (V2 was not tested)
19 [a3e534b3] (00/36) No match (V2 was not tested)
20 [c26f02eb] (00/36) No match (V2 was not tested)
21 [41fe03ae] (00/36) No match (V2 was not tested)
22 [901560ed] (00/36) No match (V2 was not tested)
23 [3e025f2e] (00/36) No match (V2 was not tested)
24 [421abd43] (00/36) No match (V2 was not tested)
25 [9c41913d] (00/35) No match (V2 was not tested)
Offsetted by 184:
01 [fd42d3e1] (02/37) Accurately ripped
02 [9e3d4c6e] (02/36) Accurately ripped
03 [353a54c9] (02/37) Accurately ripped
04 [73413ccf] (02/37) Accurately ripped
05 [592bf332] (00/35) No match (V2 was not tested)
06 [a2b7b846] (02/35) Accurately ripped
07 [3e3775f8] (02/37) Accurately ripped
08 [4a4fed6d] (02/37) Accurately ripped
09 [513db99c] (02/36) Accurately ripped
10 [79a68ab0] (02/36) Accurately ripped
11 [9585b842] (02/35) Accurately ripped
12 [1615f7e7] (02/36) Accurately ripped
13 [533372d7] (02/36) Accurately ripped
14 [8bbb7e23] (02/36) Accurately ripped
15 [634ab86c] (02/36) Accurately ripped
16 [c3c53cba] (02/36) Accurately ripped
17 [3c35a9e9] (02/36) Accurately ripped
18 [e71e338e] (02/36) Accurately ripped
19 [4f288785] (02/36) Accurately ripped
20 [e864f1ee] (02/36) Accurately ripped
21 [a1682ba4] (02/36) Accurately ripped
22 [0873096e] (02/36) Accurately ripped
23 [fb370ffd] (02/36) Accurately ripped
24 [64e3898e] (02/36) Accurately ripped
25 [f76e2ece] (02/35) Accurately ripped

Track Peak [ CRC32 ] [W/O NULL] [ LOG ]
-- 100,0 [AEE72B28] [FF4F7A3D]
01 100,0 [6ABC34F4] [51117554] CRC32
02 100,0 [14D6A250] [900D6E28] CRC32
03 100,0 [6F92078C] [60FE94D6] CRC32
04 100,0 [66378C6D] [7D239D32] CRC32
05 100,0 [D60AEEF3] [4DA4DA50] CRC32
06 100,0 [A2EEE7A9] [D7499BB9] CRC32
07 100,0 [73DC4310] [E8CEA96D] CRC32
08 100,0 [383C41E3] [8DE50A05] CRC32
09 100,0 [5E01ACD3] [46E4BC40] CRC32
10 100,0 [EA98467E] 64BF025 CRC32
11 100,0 [61EF6BF8] [48577F6B] CRC32
12 100,0 [90ACC14E] [9EE55F42] CRC32
13 100,0 [19BB2C27] 15AF1BD CRC32
14 100,0 [17B07C8C] [18592945] CRC32
15 100,0 [52B436F0] [A1B41747] CRC32
16 100,0 [F71ACE06] [2A245EBF] CRC32
17 100,0 [64D772BF] [9D140C33] CRC32
18 100,0 [C0EACE8D] [17F18D0A] CRC32
19 100,0 [F04BF8EF] [DEE5B1D5] CRC32
20 100,0 [8ED5E8F9] [64E38538] CRC32
21 100,0 [4FDF7E1E] [27FAA8AA] CRC32
22 100,0 [CF10931B] [D36B3072] CRC32
23 100,0 [ACE90CCB] [F5BCCC20] CRC32
24 100,0 [411ABD9A] [6D2FE471] CRC32
25 100,0 [371062FA] [DB0A6EBD] CRC32

foobar2000 1.2 / Dynamic Range Meter 1.1.1
log date: 2015-08-29 12:20:45

Analyzed: Tubeway Army / Tubeway Army & Living Ornaments '78

DR Peak RMS Duration Track

DR12 0.00 dB -13.95 dB 3:06 01-Listen to the Sirens
DR12 0.00 dB -13.40 dB 2:59 02-My Shadow in Vain
DR9 0.00 dB -12.22 dB 2:46 03-The Life Machine
DR12 0.00 dB -12.79 dB 2:31 04-Friends
DR12 0.00 dB -13.22 dB 4:14 05-Something's in the House
DR13 0.00 dB -14.66 dB 2:25 06-Every Day I Die
DR11 0.00 dB -12.00 dB 4:45 07-Steel and You
DR13 0.00 dB -14.76 dB 3:33 08-My Love Is a Liquid
DR12 0.00 dB -13.12 dB 3:25 09-Are You Real?
DR12 0.00 dB -12.83 dB 3:39 10-The Dream Police
DR12 0.00 dB -14.11 dB 2:41 11-Jo the Waiter
DR13 0.00 dB -15.44 dB 3:12 12-Zero Bars (Mr Smith)
DR10 0.00 dB -10.83 dB 2:57 13-Positive Thinking [live]
DR10 0.00 dB -10.93 dB 2:14 14-Boys [live]
DR10 0.00 dB -10.54 dB 2:04 15-Blue Eyes [live]
DR9 0.00 dB -10.29 dB 2:29 16-You Don't Know Me [live]
DR9 0.00 dB -9.77 dB 4:14 17-My Shadow in Vain [live]
DR9 0.00 dB -10.19 dB 4:10 18-Me My Head [live]
DR9 0.00 dB -10.58 dB 3:27 19-That's Too Bad [live]
DR10 0.00 dB -11.06 dB 3:03 20-Basic J [live]
DR8 0.00 dB -10.48 dB 2:41 21-Do Your Best [live]
DR10 0.00 dB -10.91 dB 2:31 22-Oh! Didn't I Say [live]
DR9 0.00 dB -10.88 dB 2:30 23-I'm a Poseur [live]
DR10 0.00 dB -11.21 dB 2:50 24-White Light/White Heat [live]
DR10 0.00 dB -11.19 dB 3:46 25-Kill St. Joy [live]

Number of tracks: 25
Official DR value: DR11

Samplerate: 44100 Hz
Channels: 2
Bits per sample: 16
Bitrate: 816 kbps
Codec: FLAC

Tubeway Army - Tubeway Army (1978) Expanded Remastered Reissue 1998

Tubeway Army - Tubeway Army (1978) Expanded Remastered Reissue 1998

All thanks to original releaser

Password: designol

DOWNLOAD
(Premium Recommended)


All above links are interchangable. No password

Direct Download

Tags: Tubeway, Tubeway, Expanded, Remastered, Reissue

Tubeway Army - Tubeway Army (1978) Expanded Remastered Reissue 1998 Download via Hotfile Rapidshare Fileserve Megaupload & FileSonic, Tubeway Army - Tubeway Army (1978) Expanded Remastered Reissue 1998 free torrent downloads included crack, serial, keygen.


Attention!Information

Members of Guest cannot leave comments.