Santa Esmeralda - The Best (1993)

Download Now

Santa Esmeralda - The Best (1993)

Santa Esmeralda - The Best (1993)
EAC | FLAC | Tracks (Cue&Log) ~ 528 Mb (incl 5%) | Mp3 (CBR320) ~ 203 Mb (incl 5%) | Scans included
Genre: Disco, Pop, Latin | Label: Versailles, Sony | # VER 474233 2 | Time: 01:16:13

"As disco became an important part of the international music business, European producers began working in exotic flavors into the disco beat to create unique and competitive recordings. A good example of this trend is Santa Esmeralda, a Spanish-themed studio group that wove elements of flamenco, salsa, and other Latin musical styles into its Euro-disco sound. Although the group's sound was about as genuinely Spanish as Herb Alpert & the Tijuana Brass (Santa Esmeralda was the brainchild of French record producers), the result was a crossover success that spawned several club-favorite albums and a notable pop hit in the band's Latinized cover of "Don't Let Me Be Misunderstood"."

"Back in the Stone Age, in the age of disco and before many of you were born, there was a magnificent band by the name of Santa Esmeralda.

Now if any of you think Salsa and Latin American influence in popular American music is a relatively new phenomenon, let me dissuade you of that perception.

First, we had the irrepressible Carlos Santana leading off the most famous rock concert of all time in the sixties with songs like "Black Magic Woman" and "Evil Ways". Then in the wonderful dance craze days of the seventies, with their lengthly, Latin versions of "House of the Rising Sun" and "Don't Let Me Be Misunderstood", both covers and remakes of old Animals songs from the sixties, we have Santa Esmeralda.

Anyway, with this album, we have 76 plus minutes of Santa Esmeralda's best music, including their all-time best, the fourteen minute version of "Don't Let Me Be Misunderstood", the short version of "House of the Rising Sun", their cover of "Gloria", "C'est Magnifique", "Another Cha Cha", "You're My Everything", a remix of "Misunderstood and" seven other lesser tracks.

Keep in mind that many of these songs like "Misunderstood" are dance songs and have an infectious beat, so it's not easy to sit still while listening to them.
Conclusion

Personally, I would buy this album for the two versions of "Don't Let me Be Misunderstood" and "House of the Rising Sun". The other four noted songs are also nice but of the remaining seven songs only "Sevilla Lights", "Black Pot" and the cover of "Hush" do anything for me and that's why I only gave the album 4 stars instead of five. Ironically if they would have left off the other four songs I would have given it 5 stars.

Review by Mr D., Amazon.com
"




Tracklist:

01. Don't Let Me Be Misundertood (14:20)
02. Gloria (03:55)
03. The House Of The Rising Sun & Quasimodo Suite (03:41)
04. You're My Everything (05:00)
05. Another Cha-Cha & Cha-Cha Suite (06:11)
06. C'est Magnifique (05:44)
07. Nothing Else Matters (06:33)
08. Sevilla Nights (03:06)
09. Black Pot (07:03)
10. Sweet Fusion (03:47)
11. Hey Gip (03:20)
12. Hush (02:49)
13. Eternal Light (03:58)
14. Don't Let Me Be Misundertood & Suite (06:40) nderstood Mix


Exact Audio Copy V1.0 beta 3 from 29. August 2011

Отчёт EAC об извлечении, выполненном 18. августа 2015, 21:41

Santa Esmeralda / The Best

Дисковод: LITE-ON CD-RW SOHR-5239V Adapter: 6 ID: 0

Режим чтения : Достоверность
Использование точного потока : Да
Отключение кэша аудио : Да
Использование указателей C2 : Нет

Коррекция смещения при чтении : 6
Способность читать области Lead-in и Lead-out : Нет
Заполнение пропущенных сэмплов тишиной : Да
Удаление блоков с тишиной в начале и конце : Нет
При вычислениях CRC использовались нулевые сэмплы : Да
Интерфейс : Установленный внешний ASPI-интерфейс
Обработка зазоров
: Добавлено к предыдущему треку

Выходной формат : Пользовательский кодировщик
Выбранный битрейт : 128 kBit/s
Качество : Высокий
Добавление ID3-тега : Нет
Утилита сжатия : C:\Program Files\Exact Audio Copy\Flac\flac.exe
Дополнительные параметры : -V -8 -T "Genre=%genre%" -T "Artist=%artist%" -T "Title=%title%" -T "Album=%albumtitle%" -T "Date=%year%" -T "Tracknumber=%tracknr%" -T "Comment=%comment%" %source%

TOC извлечённого CD Трек | Старт | Длительность | Начальный сектор | Конечный сектор

1 | 0:00.00 | 14:20.20 | 0 | 64519
2 | 14:20.20 | 3:55.27 | 64520 | 82171
3 | 18:15.47 | 3:41.73 | 82172 | 98819
4 | 21:57.45 | 5:00.10 | 98820 | 121329
5 | 26:57.55 | 6:11.00 | 121330 | 149154
6 | 33:08.55 | 5:44.50 | 149155 | 175004
7 | 38:53.30 | 6:33.15 | 175005 | 204494
8 | 45:26.45 | 3:06.12 | 204495 | 218456
9 | 48:32.57 | 7:03.60 | 218457 | 250241
10 | 55:36.42 | 3:47.13 | 250242 | 267279
11 | 59:23.55 | 3:20.57 | 267280 | 282336
12 | 62:44.37 | 2:49.65 | 282337 | 295076
13 | 65:34.27 | 3:58.08 | 295077 | 312934
14 | 69:32.35 | 6:40.27 | 312935 | 342961

Трек 1 Имя файла I:\MOI_RAZDACI\Santa.Esmeralda_The.Best_1993\Santa.Esmeralda_The.Best_1993\01 Don't let me be misundertood.wav Длина предзазора 0:00:02.00 Пиковый уровень 100.0 %
Скорость извлечения 7.5 X
Качество трека 100.0 %
CRC теста A9AB6B97
CRC копии A9AB6B97
Копирование... OK

Трек 2 Имя файла I:\MOI_RAZDACI\Santa.Esmeralda_The.Best_1993\Santa.Esmeralda_The.Best_1993\02 Gloria.wav Пиковый уровень 100.0 %
Скорость извлечения 7.0 X
Качество трека 99.9 %
CRC теста D015CD65
CRC копии D015CD65
Копирование... OK

Трек 3 Имя файла I:\MOI_RAZDACI\Santa.Esmeralda_The.Best_1993\Santa.Esmeralda_The.Best_1993\03 The house of the rising sun & Quasimodo suite.wav Длина предзазора 0:00:01.57 Пиковый уровень 100.0 %
Скорость извлечения 8.2 X
Качество трека 100.0 %
CRC теста EA7DFC01
CRC копии EA7DFC01
Копирование... OK

Трек 4 Имя файла I:\MOI_RAZDACI\Santa.Esmeralda_The.Best_1993\Santa.Esmeralda_The.Best_1993\04 You're my everything.wav Длина предзазора 0:00:01.03 Пиковый уровень 99.9 %
Скорость извлечения 8.2 X
Качество трека 99.9 %
CRC теста F93E6EEE
CRC копии F93E6EEE
Копирование... OK

Трек 5 Имя файла I:\MOI_RAZDACI\Santa.Esmeralda_The.Best_1993\Santa.Esmeralda_The.Best_1993\05 Another Cha-Cha & Cha-Cha suite.wav Пиковый уровень 100.0 %
Скорость извлечения 9.8 X
Качество трека 100.0 %
CRC теста E8745158
CRC копии E8745158
Копирование... OK

Трек 6 Имя файла I:\MOI_RAZDACI\Santa.Esmeralda_The.Best_1993\Santa.Esmeralda_The.Best_1993\06 C'est magnifique.wav Пиковый уровень 73.3 %
Скорость извлечения 10.3 X
Качество трека 100.0 %
CRC теста 80760659
CRC копии 80760659
Копирование... OK

Трек 7 Имя файла I:\MOI_RAZDACI\Santa.Esmeralda_The.Best_1993\Santa.Esmeralda_The.Best_1993\07 Nothing else matters.wav Длина предзазора 0:00:01.13 Пиковый уровень 99.9 %
Скорость извлечения 10.7 X
Качество трека 100.0 %
CRC теста 03F9F2D8
CRC копии 03F9F2D8
Копирование... OK

Трек 8 Имя файла I:\MOI_RAZDACI\Santa.Esmeralda_The.Best_1993\Santa.Esmeralda_The.Best_1993\08 Sevilla Nights.wav Длина предзазора 0:00:01.10 Пиковый уровень 99.9 %
Скорость извлечения 10.0 X
Качество трека 100.0 %
CRC теста E50C1581
CRC копии E50C1581
Копирование... OK

Трек 9 Имя файла I:\MOI_RAZDACI\Santa.Esmeralda_The.Best_1993\Santa.Esmeralda_The.Best_1993\09 Black Pot.wav Длина предзазора 0:00:01.35 Пиковый уровень 84.9 %
Скорость извлечения 11.7 X
Качество трека 100.0 %
CRC теста B417B893
CRC копии B417B893
Копирование... OK

Трек 10 Имя файла I:\MOI_RAZDACI\Santa.Esmeralda_The.Best_1993\Santa.Esmeralda_The.Best_1993\10 Sweet fusion.wav Длина предзазора 0:00:01.30 Пиковый уровень 68.2 %
Скорость извлечения 11.3 X
Качество трека 100.0 %
CRC теста 999864C1
CRC копии 999864C1
Копирование... OK

Трек 11 Имя файла I:\MOI_RAZDACI\Santa.Esmeralda_The.Best_1993\Santa.Esmeralda_The.Best_1993\11 Hey Gip.wav Пиковый уровень 99.5 %
Скорость извлечения 11.4 X
Качество трека 100.0 %
CRC теста 88543CCC
CRC копии 88543CCC
Копирование... OK

Трек 12 Имя файла I:\MOI_RAZDACI\Santa.Esmeralda_The.Best_1993\Santa.Esmeralda_The.Best_1993\12 Hush.wav Длина предзазора 0:00:01.46 Пиковый уровень 88.3 %
Скорость извлечения 11.4 X
Качество трека 100.0 %
CRC теста 19455731
CRC копии 19455731
Копирование... OK

Трек 13 Имя файла I:\MOI_RAZDACI\Santa.Esmeralda_The.Best_1993\Santa.Esmeralda_The.Best_1993\13 Eternal light.wav Пиковый уровень 85.6 %
Скорость извлечения 12.0 X
Качество трека 100.0 %
CRC теста 8E994B1C
CRC копии 8E994B1C
Копирование... OK

Трек 14 Имя файла I:\MOI_RAZDACI\Santa.Esmeralda_The.Best_1993\Santa.Esmeralda_The.Best_1993\14 Don't let me be misundertood & Suite.wav Длина предзазора 0:00:01.25 Пиковый уровень 100.0 %
Скорость извлечения 10.8 X
Качество трека 99.9 %
CRC теста 97DE67B8
CRC копии 97DE67B8
Копирование... OK

Ошибок не произошло

Конец отчёта

==== Контрольная сумма отчёта 1F5A7F0AE61FA7A07B9CFBD60091ED130B35400450372D26D26F0E4A23D4DBC9 ====

[CUETools log; Date: 28.08.2015 20:54:49; Version: 2.1.4]
[CTDB TOCID: HlGJjNOKU.h9Y.Z86Je_NN_kPm4-] found.
Track | CTDB Status
1 | (1/1) Accurately ripped
2 | (1/1) Accurately ripped
3 | (1/1) Accurately ripped
4 | (1/1) Accurately ripped
5 | (1/1) Accurately ripped
6 | (1/1) Accurately ripped
7 | (1/1) Accurately ripped
8 | (1/1) Accurately ripped
9 | (1/1) Accurately ripped
10 | (1/1) Accurately ripped
11 | (1/1) Accurately ripped
12 | (1/1) Accurately ripped
13 | (1/1) Accurately ripped
14 | (1/1) Accurately ripped
[AccurateRip ID: 002bb693-01bef446-e411dc0e] found.
Track [ CRC | V2 ] Status
01 [6b6f995b|fab4aa25] (0+2/2) Accurately ripped
02 [3e75bfb2|c8bbb151] (0+2/2) Accurately ripped
03 [1bac0398|2af42764] (0+2/2) Accurately ripped
04 [d9fdd242|7c23481a] (0+2/2) Accurately ripped
05 [9c7ddd1f|34845358] (0+2/2) Accurately ripped
06 [e88dbf57|07603633] (0+2/2) Accurately ripped
07 [9cc35a55|01fe9f4c] (0+2/2) Accurately ripped
08 [430eb2dc|0340b1a1] (0+2/2) Accurately ripped
09 [edc8b21f|9f63be57] (0+2/2) Accurately ripped
10 [abf38b27|d086b09c] (0+2/2) Accurately ripped
11 [3e4925c7|5ce56335] (0+2/2) Accurately ripped
12 [8ec9ed71|827597de] (0+2/2) Accurately ripped
13 [ea57b5fd|72a68ee2] (0+2/2) Accurately ripped
14 [573a298e|0ddfbdf0] (0+2/2) Accurately ripped

Track Peak [ CRC32 ] [W/O NULL] [ LOG ]
-- 100,0 [67AF5B8E] [683531A3]
01 100,0 [A9AB6B97] [0972F500] CRC32
02 100,0 [D015CD65] [86E60065] CRC32
03 100,0 [EA7DFC01] [5B05F49F] CRC32
04 99,9 [F93E6EEE] [5A84A46D] CRC32
05 100,0 [E8745158] [6FFC3E17] CRC32
06 73,3 [80760659] [457C4119] CRC32
07 99,9 [03F9F2D8] [D51D8F98] CRC32
08 99,9 [E50C1581] [106C45FD] CRC32
09 84,9 417B893 [C15EFCF6] CRC32
10 68,2 [999864C1] [3F321485] CRC32
11 99,5 [88543CCC] [48E67B29] CRC32
12 88,3 [19455731] [FFA775FD] CRC32
13 85,6 [8E994B1C] [A74BB9E3] CRC32
14 100,0 [97DE67B8] [3FB019F1] CRC32

foobar2000 1.2 / Dynamic Range Meter 1.1.1
log date: 2015-08-28 20:52:56

Analyzed: Santa Esmeralda / The Best

DR Peak RMS Duration Track

DR11 0.00 dB -12.19 dB 14:20 01-Don't let me be misundertood
DR12 0.00 dB -13.41 dB 3:55 02-Gloria
DR13 0.00 dB -14.96 dB 3:42 03-The house of the rising sun & Quasimodo suite
DR11 0.00 dB -12.95 dB 5:00 04-You're my everything
DR14 0.00 dB -15.79 dB 6:11 05-Another Cha-Cha & Cha-Cha suite
DR13 -2.69 dB -17.82 dB 5:45 06-C'est magnifique
DR14 0.00 dB -16.99 dB 6:33 07-Nothing else matters
DR13 -0.01 dB -14.20 dB 3:06 08-Sevilla Nights
DR12 -1.41 dB -16.61 dB 7:04 09-Black Pot
DR11 -3.32 dB -18.80 dB 3:47 10-Sweet fusion
DR16 -0.04 dB -18.02 dB 3:21 11-Hey Gip
DR13 -1.07 dB -16.09 dB 2:50 12-Hush
DR12 -1.34 dB -18.46 dB 3:58 13-Eternal light
DR13 0.00 dB -14.35 dB 6:40 14-Don't let me be misundertood & Suite

Number of tracks: 14
Official DR value: DR13

Samplerate: 44100 Hz
Channels: 2
Bits per sample: 16
Bitrate: 989 kbps
Codec: FLAC

Santa Esmeralda - The Best (1993)

Santa Esmeralda - The Best (1993)

All thanks to original releaser - stas64

Password: designol

DOWNLOAD LINKS
Buy Premium From My Links To Get Resumable Support & Max Speed & To Support Me


Links are Interchangeable - No Password - Single Extraction

Direct Download

Tags: Esmeralda

Santa Esmeralda - The Best (1993) Download via Hotfile Rapidshare Fileserve Megaupload & FileSonic, Santa Esmeralda - The Best (1993) free torrent downloads included crack, serial, keygen.


Attention!Information

Members of Guest cannot leave comments.