Judas Priest - Wacken 2015 [HDTV, 1080i]

Download Now

Judas Priest - Wacken 2015 [HDTV, 1080i]

Judas Priest - Wacken 2015
TS, Mpeg4 AVC, 1920x1080, 9880 kbps, 25 fps | Dolby AC3, 2 ch, 256 Kbps
Heavy Metal | 00:59:53 | ~ 5.40 Gb

~ Judas Priest performing on August 01, 2015 at Wacken Open Air festival in Wacken, Germany ~




Tracklist:

Hell Bent For Leather
The Hellion
Electric Eye
You've Got Another Thing Comin'
Painkiller
Living After Midnight

General
ID : 1 (0x1)
Complete name : G:\UP\Mix\Judas Priest. Wacken 2015\Judas Priest. Wacken 2015.ts
Format
: MPEG-TS
File size
: 4.78 GiB
Duration
: 59mn 53s
Overall bit rate mode : Variable
Overall bit rate : 11.4 Mbps

Video
ID : 571 (0x23B)
Menu ID
: 307 (0x133)
Format
: AVC
Format/Info
: Advanced Video Codec
Format profile : [email protected]
Format settings, CABAC : Yes
Format settings, ReFrames : 4 frames
Codec ID
: 27
Duration
: 59mn 53s
Bit rate
: 9 882 Kbps
Width
: 1 920 pixels
Height
: 1 080 pixels
Display aspect ratio : 16:9
Frame rate
: 25.000 fps
Standard
: Component
Color space
: YUV
Chroma subsampling

: 4:2:0
Bit depth
: 8 bits
Scan type
: Interlaced
Scan order
: Top Field First
Bits/(Pixel*Frame)

: 0.191
Stream size
: 4.13 GiB (87%)
Color primaries : BT.601 PAL
Transfer characteristics : BT.470 System B, BT.470 System G
Matrix coefficients

: BT.601

Audio #1
ID : 572 (0x23C)
Menu ID
: 307 (0x133)
Format
: AC-3
Format/Info
: Audio Coding 3
Mode extension : CM (complete main)
Format settings, Endianness : Big
Codec ID
: 6
Duration
: 59mn 53s
Bit rate mode : Constant
Bit rate
: 256 Kbps
Channel(s)
: 2 channels
Channel positions: Front: L R
Sampling rate : 48.0 KHz
Bit depth
: 16 bits
Compression mode : Lossy
Delay relative to video : -120ms
Stream size
: 110 MiB (2%)
Language
: French

Audio #2
ID : 573 (0x23D)
Menu ID
: 307 (0x133)
Format
: AC-3
Format/Info
: Audio Coding 3
Mode extension : CM (complete main)
Format settings, Endianness : Big
Codec ID
: 6
Duration
: 59mn 53s
Bit rate mode : Constant
Bit rate
: 256 Kbps
Channel(s)
: 2 channels
Channel positions: Front: L R
Sampling rate : 48.0 KHz
Bit depth
: 16 bits
Compression mode : Lossy
Delay relative to video : -120ms
Stream size
: 110 MiB (2%)
Language
: qaa

Audio #3
ID : 574 (0x23E)
Menu ID
: 307 (0x133)
Format
: AC-3
Format/Info
: Audio Coding 3
Mode extension : CM (complete main)
Format settings, Endianness : Big
Codec ID
: 6
Duration
: 59mn 53s
Bit rate mode : Constant
Bit rate
: 256 Kbps
Channel(s)
: 2 channels
Channel positions: Front: L R
Sampling rate : 48.0 KHz
Bit depth
: 16 bits
Compression mode : Lossy
Delay relative to video : -120ms
Stream size
: 110 MiB (2%)
Language
: qad

Audio #4
ID : 575 (0x23F)
Menu ID
: 307 (0x133)
Format
: AC-3
Format/Info
: Audio Coding 3
Mode extension : CM (complete main)
Format settings, Endianness : Big
Codec ID
: 6
Duration
: 59mn 53s
Bit rate mode : Constant
Bit rate
: 192 Kbps
Channel(s)
: 2 channels
Channel positions: Front: L R
Sampling rate : 48.0 KHz
Bit depth
: 16 bits
Compression mode : Lossy
Delay relative to video : -120ms
Stream size
: 82.2 MiB (2%)
Language
: German

Judas Priest - Wacken 2015 [HDTV, 1080i]

Judas Priest - Wacken 2015 [HDTV, 1080i]

Judas Priest - Wacken 2015 [HDTV, 1080i]

Judas Priest - Wacken 2015 [HDTV, 1080i]

Judas Priest - Wacken 2015 [HDTV, 1080i]

Judas Priest - Wacken 2015 [HDTV, 1080i]

Judas Priest - Wacken 2015 [HDTV, 1080i]

DOWNLOAD LINKS:
(Premium Recommended)


All above links are interchangable. No password

Direct Download

Tags: Priest, Wacken

Judas Priest - Wacken 2015 [HDTV, 1080i] Download via Hotfile Rapidshare Fileserve Megaupload & FileSonic, Judas Priest - Wacken 2015 [HDTV, 1080i] free torrent downloads included crack, serial, keygen.


Attention!Information

Members of Guest cannot leave comments.