Black Cat Bone - First, Second, Third ... The Early Years (1999) [3 albums on DCD Compilation] *RE-UP

Download Now

Black Cat Bone - First, Second, Third ... The Early Years (1999) [3 albums on DCD Compilation] *RE-UP

Black Cat Bone - First, Second, Third ... The Early Years (1999) [2CD]
EAC-FLAC Images with CUEs & LOGs - 878 MB | Complete Scans | MP3 CBR 320 Kbps - 326 MB
Blues Rock | 127:42 minutes | Reissue 2005 | Label: Fruitgum Corp. / Cat. # FCCD 05019/05020

Black Cat Bone is a Southern Germany's best blues-rock group. The band formed in 1979 based around an excellent guitarist and singer, Hans McMinamin. Countless concerts in Germany and neighbouring European countries, in addition to their appearance at the Montreux Jazz Festival have proved that their reputation as an extraordinary live band is well-earned. A variety of Blues legends such as Katie Webster, Alvin Lee, Mick Taylor, Sidney "Guitar Crusher" Selby or Rick Derringer were so impressed by the band, they booked them to tour with them as support. "First, Second, Third ... Early Years" was initially issued for band's 20th Anniversary and compiled three early album of this group.
TRACKLIST:

Disc One:

01. Sagebock Boogie
02. Without You I Can Make It
03. Worried Dream Blues
04. Pack It Up
05. Slide Rider
06. Woke Up This Morning
07. Greece
08. Mandolin Boogie
09. Running The Highway
10. Semm'r jetzt drei
11. Net daß i di net gern hätt
12. So a Glück
13. Manchmal morgens
14. I denk wirklich gern an di

Disc Two:
01. Am Arsch der Welt
02. Warom hot mir koiner gsait
03. Mir ka koiner helfa
04. Mal wieder nicht dabei
05. Intro / Slow Blues
06. Hideaway
07. No koi Hetik
08. Rockstar
09. I ain't got you
10. Weil's Business so beschiss'n iss
11. Egon
12. D'r Dumpf isch raus
13. Slide Rider

Tracks 1-9 from disc one - is from "Black Cat Bone" (LP, 1980)
Tracks 10-14 from disc 1 & 1-4 from disc 2 - is "Am Arsch der Welt" (LP, 1983)
Tracks 5-13 from disc 2 - is "Live" (LP, 1984)

Exact Audio Copy V0.99 prebeta 4 from 23. January 2008

Отчёт EAC об извлечении, выполненном 15. июня 2009, 10:37

Black Cat Bone / First, Second, Third ... Early Years - CD1

Дисковод: Optiarc DVD RW AD-7200A Adapter: 0 ID: 0

Режим чтения : Достоверность
Использование точного потока : Да
Отключение кэша аудио : Да
Использование указателей C2 : Нет

Коррекция смещения при чтении : 48
Способность читать области Lead-in и Lead-out : Нет
Заполнение пропущенных сэмплов тишиной : Да
Удаление блоков с тишиной в начале и конце : Нет
При вычислениях CRC использовались нулевые сэмплы : Нет
Интерфейс : Встроенный Win32-интерфейс для Win NT/2000

Выходной формат : Пользовательский кодировщик
Выбранный битрейт : 128 kBit/s
Качество : Высокий
Добавление ID3-тэга : Нет
Утилита сжатия : C:\Program Files\Exact Audio Copy\wavpack.exe
Дополнительные параметры : -w "Artist=%a" -w "Title=%t" -w "Album=%g" -w "Year=%y" -w "Track=%n" -w "Genre=%m" -h %s %d

TOC извлечённого CD Трек | Старт | Длительность | Начальный сектор | Конечный сектор

1 | 0:00.00 | 3:21.33 | 0 | 15107
2 | 3:21.33 | 4:12.66 | 15108 | 34073
3 | 7:34.24 | 8:31.27 | 34074 | 72425
4 | 16:05.51 | 3:59.61 | 72426 | 90411
5 | 20:05.37 | 3:36.67 | 90412 | 106678
6 | 23:42.29 | 3:39.58 | 106679 | 123161
7 | 27:22.12 | 2:03.52 | 123162 | 132438
8 | 29:25.64 | 2:01.64 | 132439 | 141577
9 | 31:27.53 | 4:32.36 | 141578 | 162013
10 | 36:00.14 | 4:28.68 | 162014 | 182181
11 | 40:29.07 | 3:47.28 | 182182 | 199234
12 | 44:16.35 | 4:37.12 | 199235 | 220021
13 | 48:53.47 | 5:00.16 | 220022 | 242537
14 | 53:53.63 | 3:12.20 | 242538 | 256957

Характеристики диапазона извлечения и сообщения об ошибках

Выбранный диапазон Имя файла C:\Releases\Black Cat Bone\Black Cat Bone - First, Second, Third ... Early Years - CD1.wav Пиковый уровень 100.0 %
Качество диапазона 100.0 %
CRC копии EAB8DD91
Копирование... OK

Ошибок не произошло
Конец отчёта

-

Track [ CRC ] Status
01 [80a508d7] (1/1) Accurately ripped
02 [5a038905] (1/1) Accurately ripped
03 [eaa01417] (1/1) Accurately ripped
04 [a3667170] (1/1) Accurately ripped
05 [79fce819] (1/1) Accurately ripped
06 069c9e0 (1/1) Accurately ripped
07 [d1cac228] (1/1) Accurately ripped
08 [aa5936b7] (1/1) Accurately ripped
09 b5b6404 (1/1) Accurately ripped
10 [4568d2f1] (1/1) Accurately ripped
11 [748e0a9f] (1/1) Accurately ripped
12 [59b8c8f3] (1/1) Accurately ripped
13 [926a48b0] (1/1) Accurately ripped
14 [175f3723] (1/1) Accurately ripped

Track Peak [ CRC32 ] [W/O NULL] [ LOG ]
-- 100,0 [07F70C74] [EAB8DD91] W/O NULL
01 100,0 [4F2A6625] [43041F62]
02 97,7 [4A0BD99B] [26CC9FE0]
03 97,3 [0135D35D] [31BF6F84]
04 95,0 [451391FE] [35AE0B52]
05 95,5 [8D66A556] [9DA0C2E3]
06 92,4 [9BCEF18B] [6ACBBB4A]
07 92,3 [E44CF3F5] [061DDC71]
08 95,8 [E4023F8D] DE15D2A
09 95,6 [FC3533E8] [56B3BAD1]
10 93,4 [9E0AFC2D] [20F34910]
11 93,7 [CCD02CC6] [3CF83AE6]
12 93,7 [39A1BE75] [4204A9BD]
13 94,1 [854639E6] 4E85753
14 90,0 [D0D3C5A5] [9294E249]

_________________________________________________

Exact Audio Copy V0.99 prebeta 4 from 23. January 2008

Отчёт EAC об извлечении, выполненном 15. июня 2009, 11:04

Black Cat Bone / First, Second, Third ... Early Years - CD2

Дисковод: Optiarc DVD RW AD-7200A Adapter: 0 ID: 0

Режим чтения : Достоверность
Использование точного потока : Да
Отключение кэша аудио : Да
Использование указателей C2 : Нет

Коррекция смещения при чтении : 48
Способность читать области Lead-in и Lead-out : Нет
Заполнение пропущенных сэмплов тишиной : Да
Удаление блоков с тишиной в начале и конце : Нет
При вычислениях CRC использовались нулевые сэмплы : Нет
Интерфейс : Встроенный Win32-интерфейс для Win NT/2000

Выходной формат : Пользовательский кодировщик
Выбранный битрейт : 128 kBit/s
Качество : Высокий
Добавление ID3-тэга : Нет
Утилита сжатия : C:\Program Files\Exact Audio Copy\wavpack.exe
Дополнительные параметры : -w "Artist=%a" -w "Title=%t" -w "Album=%g" -w "Year=%y" -w "Track=%n" -w "Genre=%m" -h %s %d

TOC извлечённого CD Трек | Старт | Длительность | Начальный сектор | Конечный сектор

1 | 0:00.00 | 4:10.10 | 0 | 18759
2 | 4:10.10 | 5:01.61 | 18760 | 41395
3 | 9:11.71 | 5:04.68 | 41396 | 64263
4 | 14:16.64 | 5:25.49 | 64264 | 88687
5 | 19:42.38 | 2:29.23 | 88688 | 99885
6 | 22:11.61 | 4:12.64 | 99886 | 118849
7 | 26:24.50 | 5:35.72 | 118850 | 144046
8 | 32:00.47 | 7:46.43 | 144047 | 179039
9 | 39:47.15 | 3:40.27 | 179040 | 195566
10 | 43:27.42 | 5:23.30 | 195567 | 219821
11 | 48:50.72 | 7:49.37 | 219822 | 255033
12 | 56:40.34 | 6:35.06 | 255034 | 284664
13 | 63:15.40 | 7:20.11 | 284665 | 317675

Характеристики диапазона извлечения и сообщения об ошибках

Выбранный диапазон Имя файла C:\Releases\Black Cat Bone\Black Cat Bone - First, Second, Third ... Early Years - CD2.wav Пиковый уровень 100.0 %
Качество диапазона 100.0 %
CRC копии 94006F83
Копирование... OK

Ошибок не произошло
Конец отчёта

Track [ CRC ] Status
01 [d2c344a2] (1/1) Accurately ripped
02 [db8dd582] (1/1) Accurately ripped
03 [e13bfbca] (1/1) Accurately ripped
04 [0fb40bb9] (1/1) Accurately ripped
05 [1f9bebb7] (1/1) Accurately ripped
06 [1dbdaecc] (1/1) Accurately ripped
07 [2e16de27] (1/1) Accurately ripped
08 [6a0af10e] (1/1) Accurately ripped
09 [6d674c68] (1/1) Accurately ripped
10 [6df7c4a4] (1/1) Accurately ripped
11 [0761d21d] (1/1) Accurately ripped
12 [50195531] (1/1) Accurately ripped
13 [0bd7ad33] (1/1) Accurately ripped

Track Peak [ CRC32 ] [W/O NULL] [ LOG ]
-- 100,0 [E28BF585] [94006F83] W/O NULL
01 99,5 [058253A1] [222DF684]
02 97,0 [E1FC1719] [FD11DC59]
03 98,0 [78516F76] 99AE19A
04 100,0 FE28E63 [5F9F3142]
05 100,0 ABB6EDA [0C6C8628]
06 97,7 [9AA1B37F] [7B7C2A7D]
07 98,0 [61A2F97F] [C8248BF8]
08 98,3 [3BD0F7A1] [CAAACDE6]
09 96,9 [88BE8D21] [2E99CCE5]
10 98,0 [98D895FE] [DD0C5EEE]
11 97,9 [3368E433] [854869C8]
12 97,3 [8AD6C42C] [EE11C1BD]
13 99,7 [7428F443] [02D22AD5]

Thanks to y-soft!
DOWNLOAD:
Buy Premium From My Links To Get Resumable Support & Max Speed & To Support Me


Links are Interchangeable - No Password

Direct Download

Tags: Second, albums, Compilation

Black Cat Bone - First, Second, Third ... The Early Years (1999) [3 albums on DCD Compilation] *RE-UP Download via Hotfile Rapidshare Fileserve Megaupload & FileSonic, Black Cat Bone - First, Second, Third ... The Early Years (1999) [3 albums on DCD Compilation] *RE-UP free torrent downloads included crack, serial, keygen.


Attention!Information

Members of Guest cannot leave comments.