Avishai Cohen - As Is... Live At The Blue Note (2007) [CD+DVD] {Half Note Records}

Download Now


Avishai Cohen - As Is... Live At The Blue Note (2007) [CD+DVD] {Half Note Records}
Avishai Cohen - As Is... Live At The Blue Note (2007) [CD+DVD] {Half Note Records}
EAC rip (secure mode) | FLAC (tracks)+CUE+LOG -> 379 Mb | MP3 @320 -> 149 Mb
DVD5 -> 4.07 Gb | All Regions | NTSC 16:9 | LPCM 2 ch | ~ 85 min | ISO Image
Full Artwork @ 600 dpi (png) -> 131 Mb | 5% repair rar
© 2007 Half Note Records | HN4531
Jazz / Post Bop / Progressive Jazz / Bass

"Avishai Cohen, who became well known in the jazz world during his period with Chick Corea, is one of the top bassists in the world. His virtuosity and constant creativity in both a modern mainstream format and on funkier grooves seem effortless. As Is...Live at the Blue Note contains a CD (the first seven selections) and a DVD. "Smash," "Feediop," the ballad "Remembering" and an overlong "Caravan" (the one non-original) are featured in both formats while three songs are different."

Avishai Cohen - As Is... Live At The Blue Note (2007) [CD+DVD] {Half Note Records}


AAJ INFO

Personnel:
Avishai Cohen: acoustic and electric bass
Sam Barsh: keyboards, melodica
Mark Guilliana: drums
Diego Urcola: trumpet
Jimmy Greene: saxophones

tracklist:
CD

01. Smash
02. Elli
03. Etude
04. Bass Suite #1
05. Feediop
06. Remembering
07. Caravan

Avishai Cohen - As Is... Live At The Blue Note (2007) [CD+DVD] {Half Note Records}


DVD
01. Feediop
02. Samuel
03. One For Mark
04. Nu Nu
05. Smash
06. Remembering
07. Caravan

Avishai Cohen - As Is... Live At The Blue Note (2007) [CD+DVD] {Half Note Records}



Exact Audio Copy V1.0 beta 3 from 29. August 2011

EAC extraction logfile from 9. March 2015, 8:27

Avishai Cohen / As Is... Live At The Blue Note

Used drive : PLEXTOR BD-R PX-B950SA Adapter: 3 ID: 0

Read mode : Secure
Utilize accurate stream : Yes
Defeat audio cache : Yes
Make use of C2 pointers : No

Read offset correction

: 6
Overread into Lead-In and Lead-Out : No
Fill up missing offset samples with silence : Yes
Delete leading and trailing silent blocks : No
Null samples used in CRC calculations : Yes
Used interface
: Native Win32 interface for Win NT & 2000
Gap handling
: Appended to previous track

Used output format : User Defined Encoder
Selected bitrate : 1024 kBit/s
Quality : High
Add ID3 tag : No
Command line compressor : C:\Program Files (x86)\Exact Audio Copy\Flac\flac.exe
Additional command line options : -8 -V -T "ARTIST=%artist%" -T "TITLE=%title%" -T "ALBUM=%albumtitle%" -T "DATE=%year%" -T "TRACKNUMBER=%tracknr%" -T "TOTALTRACKS=%numtracks%" -T "GENRE=%genre%" -T "ALBUMARTIST=%albumartist%" -T "ALBUM ARTIST=%albumartist%" -T "COMMENT=EAC Secure Mode, Test & Copy, AccurateRip, FLAC -8" %source%

TOC of the extracted CD Track | Start | Length | Start sector | End sector
--1 | 0:00.00 | 10:30.19 | 0 | 47268 2 | 10:30.19 | 7:01.23 | 47269 | 78866 3 | 17:31.42 | 10:20.15 | 78867 | 125381 4 | 27:51.57 | 6:04.50 | 125382 | 152731 5 | 33:56.32 | 7:28.38 | 152732 | 186369 6 | 41:24.70 | 6:02.17 | 186370 | 213536 7 | 47:27.12 | 14:47.51 | 213537 | 280112

Track 1 Filename Z:\#Torrents\Eigene\Avishai Cohen - As Is... Live At The Blue Note (2006) [FLAC] (CD & DVD)\CD\01 - Smash.wav Pre-gap length 0:00:02.00 Peak level 99.8 %
Extraction speed 5.1 X
Track quality 100.0 %
Test CRC A12A8D05
Copy CRC A12A8D05
Accurately ripped (confidence 12) [DD672624] (AR v2)
Copy OK

Track 2 Filename Z:\#Torrents\Eigene\Avishai Cohen - As Is... Live At The Blue Note (2006) [FLAC] (CD & DVD)\CD\02 - Elli.wav Peak level 93.2 %
Extraction speed 5.4 X
Track quality 99.9 %
Test CRC CAF5C505
Copy CRC CAF5C505
Accurately ripped (confidence 12) [DFAEFB4E] (AR v2)
Copy OK

Track 3 Filename Z:\#Torrents\Eigene\Avishai Cohen - As Is... Live At The Blue Note (2006) [FLAC] (CD & DVD)\CD\03 - Etude.wav Peak level 99.8 %
Extraction speed 6.9 X
Track quality 100.0 %
Test CRC 9EFDC6DD
Copy CRC 9EFDC6DD
Accurately ripped (confidence 12) [9E89C4A6] (AR v2)
Copy OK

Track 4 Filename Z:\#Torrents\Eigene\Avishai Cohen - As Is... Live At The Blue Note (2006) [FLAC] (CD & DVD)\CD\04 - Bass Suite No. 1.wav Peak level 94.0 %
Extraction speed 7.4 X
Track quality 100.0 %
Test CRC 59F02BFC
Copy CRC 59F02BFC
Accurately ripped (confidence 12) 1EE963E (AR v2)
Copy OK

Track 5 Filename Z:\#Torrents\Eigene\Avishai Cohen - As Is... Live At The Blue Note (2006) [FLAC] (CD & DVD)\CD\05 - Feediop.wav Peak level 99.8 %
Extraction speed 7.1 X
Track quality 99.9 %
Test CRC 3CB55186
Copy CRC 3CB55186
Accurately ripped (confidence 12) [CD2D3347] (AR v2)
Copy OK

Track 6 Filename Z:\#Torrents\Eigene\Avishai Cohen - As Is... Live At The Blue Note (2006) [FLAC] (CD & DVD)\CD\06 - Remembering.wav Peak level 93.2 %
Extraction speed 7.3 X
Track quality 99.9 %
Test CRC F0D41DAF
Copy CRC F0D41DAF
Accurately ripped (confidence 12) [A96FF679] (AR v2)
Copy OK

Track 7 Filename Z:\#Torrents\Eigene\Avishai Cohen - As Is... Live At The Blue Note (2006) [FLAC] (CD & DVD)\CD\07 - Caravan.wav Peak level 99.4 %
Extraction speed 9.4 X
Track quality 100.0 %
Test CRC 108B03A7
Copy CRC 108B03A7
Accurately ripped (confidence 12) [53CE6151] (AR v2)
Copy OK

All tracks accurately ripped

No errors occurred

End of status report

- CUETools DB Plugin V2.1.3

[CTDB TOCID: yTZ_2ACuf.3xkHaQGnMF3T1udIg-] found, Submit result: yTZ_2ACuf.3xkHaQGnMF3T1udIg- has been confirmed
[dc385ec7] (19/21) Accurately ripped
[fbddc4f9] (01/21) No match
[6c5c21ac] (01/21) No match

==== Log checksum 9A89D9682BFDAE6768A34271C774A60C8386753920C069B3C27EBF0240C0B01D ====

I 08:40:12 DVD Decrypter Version 3.5.4.0 started!
I 08:40:12 Media Center Edition (6.1, Build 7601 : Service Pack 1)
I 08:40:12 Initialising SPTI...
I 08:40:12 Searching for SCSI / ATAPI devices...
I 08:40:12 Found 1 DVD-RAM/±RW!
W 08:40:14 Possible Structure Protection Found!
W 08:40:14 1 area has been marked as 'suspect'.
W 08:40:14 Dummy sectors will be inserted where necessary.
I 08:43:23 Operation Started!
I 08:43:23 Source Device: [3:0:0] PLEXTOR BD-R PX-B950SA 1.02 (G:) (ATA)
I 08:43:23 Source Media Type: DVD-ROM
I 08:43:23 Source Media Region Code: 1; 2; 3; 4; 5; 6; 7; 8
I 08:43:23 Source Media Copyright Protection System Type: None
I 08:43:23 Source Media Implementation Identifier: Apple Computer, Inc.
I 08:43:23 Destination File: Z:\#Torrents\Eigene\Avishai Cohen - As Is... Live At The Blue Note (2006) [FLAC] (CD & DVD)\Image\AVISHAI_COHEN.ISO
I 08:43:23 File Splitting: None
I 08:43:23 Hardware Read Error Retries: 20
I 08:43:23 Remove Structure Protection: No
I 08:43:23 Bad Sector Removal Method: Normal
I 08:43:23 Detect Mastering Errors: No
I 08:43:23 Remove Macrovision Protection: Yes
I 08:43:23 Extracting Sectors... (LBA: 0 - 2181023)
I 08:43:23 Found IFO File: VIDEO_TS.IFO - (LBA: 304 - 311)
I 08:43:23 Found VOB File: VIDEO_TS.VOB - (LBA: 312 - 368) - KEY: N/A
I 08:43:24 Found BUP File: VIDEO_TS.BUP - (LBA: 369 - 376)
I 08:43:24 Found IFO File: VTS_01_0.IFO - (LBA: 377 - 389)
I 08:43:24 Found VOB File: VTS_01_0.VOB - (LBA: 390 - 438) - KEY: N/A
I 08:43:24 Found VOB File: VTS_01_1.VOB - (LBA: 439 - 195084) - KEY: N/A
I 08:44:06 Found BUP File: VTS_01_0.BUP - (LBA: 195085 - 195097)
I 08:44:06 Found IFO File: VTS_02_0.IFO - (LBA: 195098 - 195109)
I 08:44:06 Found VOB File: VTS_02_0.VOB - (LBA: 195110 - 195166) - KEY: N/A
I 08:44:06 Found VOB File: VTS_02_1.VOB - (LBA: 195167 - 476060) - KEY: N/A
I 08:44:53 Found BUP File: VTS_02_0.BUP - (LBA: 476061 - 476072)
I 08:44:53 Found IFO File: VTS_03_0.IFO - (LBA: 476073 - 476098)
I 08:44:53 Found VOB File: VTS_03_0.VOB - (LBA: 476099 - 476155) - KEY: N/A
I 08:44:53 Found VOB File: VTS_03_1.VOB - (LBA: 476156 - 1000357) - KEY: N/A
I 08:46:06 Found VOB File: VTS_03_2.VOB - (LBA: 1000358 - 1524559) - KEY: N/A
I 08:47:06 Found VOB File: VTS_03_3.VOB - (LBA: 1524560 - 2048761) - KEY: N/A
I 08:47:59 Found VOB File: VTS_03_4.VOB - (LBA: 2048762 - 2180996) - KEY: N/A
I 08:48:12 Found BUP File: VTS_03_0.BUP - (LBA: 2180997 - 2181022)
I 08:48:12 Operation Successfully Completed! - Duration: 00:04:48
I 08:48:12 Average Read Rate: 15.146 KB/s (10.9x) - Maximum Read Rate: 21.342 KB/s (15.4x)

Avishai Cohen - As Is... Live At The Blue Note (2007) [CD+DVD] {Half Note Records}

Avishai Cohen - As Is... Live At The Blue Note (2007) [CD+DVD] {Half Note Records}

Avishai Cohen - As Is... Live At The Blue Note (2007) [CD+DVD] {Half Note Records}

Avishai Cohen - As Is... Live At The Blue Note (2007) [CD+DVD] {Half Note Records}


All thanks goes to the original releaser!
Download:
Buy Premium To Support Me & Get Resumable Support & Max Speed

Rapidgator.net:
v9j3q.avishaicohenasisbluenote.part1.rar.html
v9j3q.avishaicohenasisbluenote.part2.rar.html
v9j3q.avishaicohenasisbluenoteARTWORK.rar.html
v9j3q.avishaicohenasisbluenoteDVD.part01.rar.html
v9j3q.avishaicohenasisbluenoteDVD.part02.rar.html
v9j3q.avishaicohenasisbluenoteDVD.part03.rar.html
v9j3q.avishaicohenasisbluenoteDVD.part04.rar.html
v9j3q.avishaicohenasisbluenoteDVD.part05.rar.html
v9j3q.avishaicohenasisbluenoteDVD.part06.rar.html
v9j3q.avishaicohenasisbluenoteDVD.part07.rar.html
v9j3q.avishaicohenasisbluenoteDVD.part08.rar.html
v9j3q.avishaicohenasisbluenoteDVD.part09.rar.html
v9j3q.avishaicohenasisbluenoteDVD.part10.rar.html
v9j3q.avishaicohenasisbluenoteDVD.part11.rar.html
v9j3q.avishaicohenasisbluenoteMP.rar.html

Uploaded.net:
v9j3q.avishaicohenasisbluenote.part1.rar
v9j3q.avishaicohenasisbluenote.part2.rar
v9j3q.avishaicohenasisbluenoteARTWORK.rar
v9j3q.avishaicohenasisbluenoteDVD.part01.rar
v9j3q.avishaicohenasisbluenoteDVD.part02.rar
v9j3q.avishaicohenasisbluenoteDVD.part03.rar
v9j3q.avishaicohenasisbluenoteDVD.part04.rar
v9j3q.avishaicohenasisbluenoteDVD.part05.rar
v9j3q.avishaicohenasisbluenoteDVD.part06.rar
v9j3q.avishaicohenasisbluenoteDVD.part07.rar
v9j3q.avishaicohenasisbluenoteDVD.part08.rar
v9j3q.avishaicohenasisbluenoteDVD.part09.rar
v9j3q.avishaicohenasisbluenoteDVD.part10.rar
v9j3q.avishaicohenasisbluenoteDVD.part11.rar
v9j3q.avishaicohenasisbluenoteMP.rar

Uploadable.ch:
v9j3q.avishaicohenasisbluenote.part1.rar
v9j3q.avishaicohenasisbluenote.part2.rar
v9j3q.avishaicohenasisbluenoteARTWORK.rar
v9j3q.avishaicohenasisbluenoteDVD.part01.rar
v9j3q.avishaicohenasisbluenoteDVD.part02.rar
v9j3q.avishaicohenasisbluenoteDVD.part03.rar
v9j3q.avishaicohenasisbluenoteDVD.part04.rar
v9j3q.avishaicohenasisbluenoteDVD.part05.rar
v9j3q.avishaicohenasisbluenoteDVD.part06.rar
v9j3q.avishaicohenasisbluenoteDVD.part07.rar
v9j3q.avishaicohenasisbluenoteDVD.part08.rar
v9j3q.avishaicohenasisbluenoteDVD.part09.rar
v9j3q.avishaicohenasisbluenoteDVD.part10.rar
v9j3q.avishaicohenasisbluenoteDVD.part11.rar
v9j3q.avishaicohenasisbluenoteMP.rar

Links are Interchangeable - No Password

Direct Download

Tags: Avishai, Records

Avishai Cohen - As Is... Live At The Blue Note (2007) [CD+DVD] {Half Note Records} Download via Hotfile Rapidshare Fileserve Megaupload & FileSonic, Avishai Cohen - As Is... Live At The Blue Note (2007) [CD+DVD] {Half Note Records} free torrent downloads included crack, serial, keygen.


Attention!Information

Members of Guest cannot leave comments.