Depeche Mode - The Second Strike (1992)

Download Now

Depeche Mode - The Second Strike (1992)

Depeche Mode - The Second Strike (1992)
EAC | Flac(Image) + Cue + Log & MP3 CBR 320Kbps
Downtown Records, CD 80 | ~ 520 or 174 Mb | Scans Included
Synth-pop

~ Compilation, Promo, Unofficial Release ~



Tracklist:

01. Halo (Bogus Brothers Mix) [06:29]
02. People are people (Razormaid Mix) [06:27]
03. Happiest Girl (Razormaid Mix) [06:59]
04. Enjoy the Silence (Razormaid Mix) [06:11]
05. Maste and Servant (Razormaid Mix) [08:02]
06. Behind the wheel/ route 66 (Ivan Megamix) [07:54]
07. World in my eyes (Razormaid Mix) [07:35]
08. It's called a heart (Razormaid Mix) [06:50]
09. Sea of sin (Razormaid Mix) [06:30]
10. Policy of truth (Art of 'memorandum' mix) [08:11]

This release of "The Second Strike" features full tracklisting on the backside cover. An 11th track is listed on the back cover, "But Not Tonight (Margouleff Mix)", but does not actually appear on the CD. ~ Discogs

Exact Audio Copy V0.99 prebeta 5 from 4. May 2009

Отчёт EAC об извлечении, выполненном 1. августа 2011, 15:28

Depeche Mode / The second strike

Дисковод: PLEXTOR DVDR PX-820A Adapter: 0 ID: 0

Режим чтения : Достоверность
Использование точного потока : Да
Отключение кэша аудио : Да
Использование указателей C2 : Нет

Коррекция смещения при чтении : 48
Способность читать области Lead-in и Lead-out : Нет
Заполнение пропущенных сэмплов тишиной : Да
Удаление блоков с тишиной в начале и конце : Нет
При вычислениях CRC использовались нулевые сэмплы : Да
Интерфейс : Встроенный Win32-интерфейс для Win NT/2000

Выходной формат : Пользовательский кодировщик
Выбранный битрейт : 768 kBit/s
Качество : Высокий
Добавление ID3-тэга : Нет
Утилита сжатия : C:\Program Files\Exact Audio Copy\FLAC\FLAC.EXE
Дополнительные параметры : -6 -V -T "ARTIST=%a" -T "TITLE=%t" -T "ALBUM=%g" -T "DATE=%y" -T "TRACKNUMBER=%n" -T "GENRE=%m" -T "COMMENT=%e" %s -o %d

TOC извлечённого CD Трек | Старт | Длительность | Начальный сектор | Конечный сектор

1 | 0:00.30 | 6:29.52 | 30 | 29256
2 | 6:30.07 | 6:27.15 | 29257 | 58296
3 | 12:57.22 | 6:59.23 | 58297 | 89744
4 | 19:56.45 | 6:11.47 | 89745 | 117616
5 | 26:08.17 | 8:03.00 | 117617 | 153841
6 | 34:11.17 | 7:54.00 | 153842 | 189391
7 | 42:05.17 | 7:35.30 | 189392 | 223546
8 | 49:40.47 | 6:50.40 | 223547 | 254336
9 | 56:31.12 | 6:30.05 | 254337 | 283591
10 | 63:01.17 | 8:11.23 | 283592 | 320439

Характеристики диапазона извлечения и сообщения об ошибках

Выбранный диапазон Имя файла D:\TORRENTS SID\DM-STRIKES\Depeche Mode - DJ's Revenge\Depeche Mode - The second strike.wav Пиковый уровень 97.4 %
Качество диапазона 100.0 %
CRC теста C7287371
CRC копии C7287371
Копирование... OK

Ошибок не произошло


AccurateRip: сводка

Трек 1 точность не определена (достоверность 2) [7907099D], AccurateRip вернул [276C37A3]
Трек 2 точность не определена (достоверность 2) F1FBCAF, AccurateRip вернул [1EF4445F]
Трек 3 точность не определена (достоверность 2) [C9B3A760], AccurateRip вернул [D0DC03BE]
Трек 4 точность не определена (достоверность 2) [DF65B09B], AccurateRip вернул [FACE7BAD]
Трек 5 точность не определена (достоверность 2) [92C90205], AccurateRip вернул [15F718F5]
Трек 6 точность не определена (достоверность 2) [4A816919], AccurateRip вернул [444A6651]
Трек 7 точность не определена (достоверность 2) [7256E110], AccurateRip вернул [1FB99A3E]
Трек 8 точность не определена (достоверность 2) [4D580FCB], AccurateRip вернул [CAEBBA71]
Трек 9 точность не определена (достоверность 2) [0E997160], AccurateRip вернул [AE8918E8]
Трек 10 точность не определена (достоверность 2) [5972F8AA], AccurateRip вернул [CCC8352C]

Ни один трек не прошёл проверки на точность
В вашей базе может быть иной вариант штамповки диска

Конец отчёта

foobar2000 1.2.9 / Dynamic Range Meter 1.1.1
log date: 2015-08-30 18:56:08

Analyzed: Depeche Mode / The second strike

DR Peak RMS Duration Track

DR5 -0.22 dB -7.11 dB 6:30 01-Halo (Bogus Brothers Mix)
DR7 -0.23 dB -8.84 dB 6:27 02-People are people (Razormaid Mix)
DR6 -0.26 dB -7.10 dB 6:59 03-Happiest Girl (Razormaid Mix)
DR7 -0.26 dB -9.40 dB 6:12 04-Enjoy the Silence (Razormaid Mix)
DR7 -0.30 dB -9.52 dB 8:03 05-Maste and Servant (Razormaid Mix)
DR8 -0.26 dB -10.27 dB 7:54 06-Behind the wheel/ route 66 (Ivan Megamix)
DR6 -0.25 dB -8.28 dB 7:35 07-World in my eyes (Razormaid Mix)
DR8 -0.23 dB -10.03 dB 6:51 08-It's called a heart (Razormaid Mix)
DR7 -0.46 dB -8.99 dB 6:30 09-Sea of sin (Razormaid Mix)
DR7 -0.32 dB -9.43 dB 8:11 10-Policy of truth (Art of 'memorandum' mix)

Number of tracks: 10
Official DR value: DR7

Samplerate: 44100 Hz
Channels: 2
Bits per sample: 16
Bitrate: 981 kbps
Codec: FLAC

[CUETools log; Date: 30.08.2015 18:49:15; Version: 2.1.4]
Pregap length 00:00:30.
[CTDB TOCID: 6xAnmx797piaWdMRLq2BFzs51u4-] found.
Track | CTDB Status
1 | (5/5) Accurately ripped
2 | (5/5) Accurately ripped
3 | (5/5) Accurately ripped
4 | (5/5) Accurately ripped
5 | (5/5) Accurately ripped
6 | (5/5) Accurately ripped
7 | (5/5) Accurately ripped
8 | (5/5) Accurately ripped
9 | (5/5) Accurately ripped
10 | (5/5) Accurately ripped
[AccurateRip ID: 001a3f20-00d399c9-9d10b00a] found.
Track [ CRC | V2 ] Status
01 [7907099d|6cb46863] (0+0/4) No match
02 f1fbcaf|2c6e10a3 (0+0/4) No match
03 [c9b3a760|3894f696] (0+0/4) No match
04 [df65b09b|56223a19] (0+0/4) No match
05 [92c90205|c992f049] (0+0/4) No match
06 [4a816919|51ac3894] (0+0/4) No match
07 [7256e110|3de05be5] (0+0/4) No match
08 [4d580fcb|d98bbc40] (0+0/4) No match
09 [0e997160|db1a85d9] (0+0/4) No match
10 [5972f8aa|fc0536d2] (0+0/4) No match
Offsetted by 18:
01 [276c37a3] (2/4) Accurately ripped
02 [1ef4445f] (2/4) Accurately ripped
03 [d0dc03be] (2/4) Accurately ripped
04 [face7bad] (2/4) Accurately ripped
05 [15f718f5] (2/4) Accurately ripped
06 [444a6651] (2/4) Accurately ripped
07 [1fb99a3e] (2/4) Accurately ripped
08 [caebba71] (2/4) Accurately ripped
09 [ae8918e8] (2/4) Accurately ripped
10 [ccc8352c] (2/4) Accurately ripped

Track Peak [ CRC32 ] [W/O NULL] [ LOG ]
-- 97,4 [C7287371] [9FD47ED1] CRC32
01 97,4 [E3BC9B57] C2A0A08
02 97,3 [E93E4316] [2C95610C]
03 97,0 [D5CF5C0A] [F6C7A517]
04 97,0 [191B5B99] [714D18B7]
05 96,5 [FDFAA587] [A7871C8C]
06 96,9 [1E8688B3] [8EE5AA42]
07 97,1 [FDAFDC01] [0276E091]
08 97,3 [4D442E5D] [183D3329]
09 94,7 [19EFBECA] [98C2591D]
10 96,3 [A0C22523] [15BE8B06]

Depeche Mode - The Second Strike (1992)

DOWNLOAD:
Buy Premium To Support Me & Get Resumable Support & Max Speed


Links are Interchangeable - No Password

Direct Download

Tags: Depeche, Second, Strike

Depeche Mode - The Second Strike (1992) Download via Hotfile Rapidshare Fileserve Megaupload & FileSonic, Depeche Mode - The Second Strike (1992) free torrent downloads included crack, serial, keygen.


Attention!Information

Members of Guest cannot leave comments.