Franz Halasz - All In Twilight - Toru Takemitsu: Complete Music for Solo Guitar (2000)

Download Now

Franz Halasz - All In Twilight - Toru Takemitsu: Complete Music for Solo Guitar (2000)

Franz Halász - All In Twilight - Tōru Takemitsu: Complete Music for Solo Guitar (2000)
EAC | FLAC | Image (Cue&Log) ~ 277 Mb (incl 5%) | Mp3 (CBR320) ~ 173 Mb (incl 5%) | Scans included
Genre: Classical, Chamber Music | Label: BIS | # BIS-CD-1075 | Time: 01:10:10

"German guitarist Franz Halász displays a fine sense of tone and pacing in this revealing overview of Takemitsu's solo guitar music. Takemitsu wrote for the concert stage in an original avant-garde idiom, created over 100 film soundtracks, and produced arrangements of Japanese folk tunes and Western popular music. This range, except for the soundtracks, is represented here. The title tracks are from the concert work All in Twilight -- Four pieces for guitar (1987), inspired by Paul Klee's painting of the same name. Here Halász's beautiful touch is shown in contrasting and subtle timbres on the composer's rich, jazz-like harmonies, sometimes brooding, sometimes in quickly flowing passages like those of the third movement. Next, the first six of "12 Songs" introduces some technically challenging, but aesthetically straightforward arrangements -- Sammy Fain's classic Secret Love, four tunes by John Lennon and Paul McCartney, and George Gershwin's Summertime in which Takemitsu spectacularly manages to reduce the best orchestral parts to the limits of the guitar and to improvise in a free-flowing manner."



Tracklist:

01. All in Twilight - I. [] (02:41)
02. All in Twilight - II. Dark (02:49)
03. All in Twilight - III. [] (01:42)
04. All in Twilight - IV. Slightly Fast (02:30)

05. 12 Songs - Secret Love (Sammy Fain) (02:28)
06. 12 Songs - Yesterday (John Lennon & Paul McCartney) (03:05)
07. 12 Songs - Hey Jude (John Lennon & Paul McCartney) (03:06)
08. 12 Songs - Michelle (John Lennon & Paul McCartney) (03:01)
09. 12 Songs - Here, There and Everywhere (John Lennon & Paul McCartney) (03:02)
10. 12 Songs - Summertime (George Gershwin) (03:41)

11. Equinox (04:56)

12. Folios - I. [] (02:12)
13. Folios - II. [] (02:29)
14. Folios - III. [] (02:32)

15. In the Woods - I. Wainscot Pond - after a painting by Comelia Foss (03:00)
16. In the Woods - II. Rosedale (03:20)
17. In the Woods - III. Muir Woods (04:32)

18. 12 Songs - A Song of early Spring (Akira Nakada) (02:58)
19. 12 Songs - What a Friend (Charles C. Converse) (02:37)
20. 12 Songs - Amours Perdues (Joseph Kosma) (02:27)
21. 12 Songs - Over the Rainbow (Harold Arlen) (02:16)
22. 12 Songs - The International (Pierre Degeyter) (01:55)
23. 12 Songs - Londonderry Air (Irish Folk-song) (03:00)

24. The Last Waltz arranged for guitar (Les Reed & Barry Mason) (03:38)


Exact Audio Copy V1.0 beta 3 from 29. August 2011

EAC extraction logfile from 19. December 2013, 15:54

Franz Halasz / Takemitsu - Complete Music for Solo Guitar

Used drive : HL-DT-STDVDRRW GWA-4164B Adapter: 5 ID: 0

Read mode : Secure
Utilize accurate stream : Yes
Defeat audio cache : Yes
Make use of C2 pointers : No

Read offset correction

: 102
Overread into Lead-In and Lead-Out : No
Fill up missing offset samples with silence : Yes
Delete leading and trailing silent blocks : No
Null samples used in CRC calculations : Yes
Used interface
: Native Win32 interface for Win NT & 2000

Used output format : User Defined Encoder
Selected bitrate : 896 kBit/s
Quality : High
Add ID3 tag : No
Command line compressor : C:\Program Files\Exact Audio Copy\FLAC\FLAC.EXE
Additional command line options : -V -8 %source%

TOC of the extracted CD Track | Start | Length | Start sector | End sector
--1 | 0:00.00 | 2:41.12 | 0 | 12086 2 | 2:41.12 | 2:49.48 | 12087 | 24809 3 | 5:30.60 | 1:42.47 | 24810 | 32506 4 | 7:13.32 | 2:30.68 | 32507 | 43824 5 | 9:44.25 | 2:28.10 | 43825 | 54934 6 | 12:12.35 | 3:05.27 | 54935 | 68836 7 | 15:17.62 | 3:06.48 | 68837 | 82834 8 | 18:24.35 | 3:01.67 | 82835 | 96476 9 | 21:26.27 | 3:02.48 | 96477 | 110174
10 | 24:29.00 | 3:41.10 | 110175 | 126759
11 | 28:10.10 | 4:56.47 | 126760 | 149006
12 | 33:06.57 | 2:12.38 | 149007 | 158944
13 | 35:19.20 | 2:29.37 | 158945 | 170156
14 | 37:48.57 | 2:32.05 | 170157 | 181561
15 | 40:20.62 | 3:00.30 | 181562 | 195091
16 | 43:21.17 | 3:20.73 | 195092 | 210164
17 | 46:42.15 | 4:32.62 | 210165 | 230626
18 | 51:15.02 | 2:58.68 | 230627 | 244044
19 | 54:13.70 | 2:37.22 | 244045 | 255841
20 | 56:51.17 | 2:27.10 | 255842 | 266876
21 | 59:18.27 | 2:16.40 | 266877 | 277116
22 | 61:34.67 | 1:55.40 | 277117 | 285781
23 | 63:30.32 | 3:00.73 | 285782 | 299354
24 | 66:31.30 | 3:38.45 | 299355 | 315749

Range status and errors

Selected range Filename D:\temp\Music\BIS-CD-1075 - Takemitsu - Complete Music for Solo Guitar\Takemitsu - Complete Music for Solo Guitar.wav Peak level 100.0 %
Extraction speed 3.1 X
Range quality 100.0 %
Test CRC FACE0627
Copy CRC FACE0627
Copy OK

No errors occurred


AccurateRip summary

Track 1 not present in database
Track 2 not present in database
Track 3 not present in database
Track 4 not present in database
Track 5 not present in database
Track 6 not present in database
Track 7 not present in database
Track 8 not present in database
Track 9 not present in database
Track 10 not present in database
Track 11 not present in database
Track 12 not present in database
Track 13 not present in database
Track 14 not present in database
Track 15 not present in database
Track 16 not present in database
Track 17 not present in database
Track 18 not present in database
Track 19 not present in database
Track 20 not present in database
Track 21 not present in database
Track 22 not present in database
Track 23 not present in database
Track 24 not present in database

None of the tracks are present in the AccurateRip database

End of status report

==== Log checksum 8707D965BDD0E46ED8340EC50AA91CA90DC2AE2D96B781579736833380C41615 ====

[CUETools log; Date: 30.08.2015 14:00:22; Version: 2.1.4]
[CTDB TOCID: jBdDjpZ5SAP4.jyRRB2J__4d8eM-] found.
Track | CTDB Status
1 | (3/3) Accurately ripped
2 | (3/3) Accurately ripped
3 | (3/3) Accurately ripped
4 | (3/3) Accurately ripped
5 | (3/3) Accurately ripped
6 | (3/3) Accurately ripped
7 | (3/3) Accurately ripped
8 | (3/3) Accurately ripped
9 | (3/3) Accurately ripped
10 | (3/3) Accurately ripped
11 | (3/3) Accurately ripped
12 | (3/3) Accurately ripped
13 | (3/3) Accurately ripped
14 | (3/3) Accurately ripped
15 | (3/3) Accurately ripped
16 | (3/3) Accurately ripped
17 | (3/3) Accurately ripped
18 | (3/3) Accurately ripped
19 | (3/3) Accurately ripped
20 | (3/3) Accurately ripped
21 | (3/3) Accurately ripped
22 | (3/3) Accurately ripped
23 | (3/3) Accurately ripped
24 | (3/3) Accurately ripped
[AccurateRip ID: 003b6943-04109db4-54107218] found.
Track [ CRC | V2 ] Status
01 3b24b71|c707162d (1+0/1) Accurately ripped
02 [230c991a|8d90cd30] (1+0/1) Accurately ripped
03 [51d2e0f1|4a51a7b3] (1+0/1) Accurately ripped
04 [0b534b2a|f721118e] (1+0/1) Accurately ripped
05 [ed418672|fca5b42d] (1+0/1) Accurately ripped
06 [388270e2|6bb727f5] (1+0/1) Accurately ripped
07 [d43c826d|993f42e6] (1+0/1) Accurately ripped
08 [30d1faab|2e3637be] (1+0/1) Accurately ripped
09 [e5ff5e00|70f213f3] (1+0/1) Accurately ripped
10 [c8a33562|5b6ad47e] (1+0/1) Accurately ripped
11 [24464882|e87eedca] (1+0/1) Accurately ripped
12 [566d9d0f|bb1480d1] (1+0/1) Accurately ripped
13 [72959aba|9aa57359] (1+0/1) Accurately ripped
14 [ee42b993|1a8323db] (1+0/1) Accurately ripped
15 [f0a7bdc9|81d1cb28] (1+0/1) Accurately ripped
16 [9d2b4f3c|5c3f53a1] (1+0/1) Accurately ripped
17 [5d1bc34e|917eaf06] (1+0/1) Accurately ripped
18 [522f789e|472d8054] (1+0/1) Accurately ripped
19 [d16d8a80|1e21292a] (1+0/1) Accurately ripped
20 [55e1297a|fb01d876] (1+0/1) Accurately ripped
21 [433d99e6|65e0ec44] (1+0/1) Accurately ripped
22 [a28d2786|6a87e6ea] (1+0/1) Accurately ripped
23 [03fbeb09|a01f6ad6] (1+0/1) Accurately ripped
24 [486b4db8|881f90a0] (1+0/1) Accurately ripped

Track Peak [ CRC32 ] [W/O NULL] [ LOG ]
-- 99,9 [FACE0627] [17F47B33] CRC32
01 78,6 [373E3DA9] [6053C951]
02 95,0 [33317194] [91C59458]
03 76,9 [9A31A72D] [92572D01]
04 84,2 [5E1CD5A7] [24ACF289]
05 54,5 [7F950DAF] [18F2FFC8]
06 74,8 [9D832EFD] [8CD44D59]
07 77,0 [E6D1C493] [73C08D97]
08 86,2 [1DDCFA5B] [1685CB89]
09 76,9 [1DD7CE4A] [8466B355]
10 77,4 [832AE7AE] [1EF10DE5]
11 72,6 [3B9F8DD5] [80B85422]
12 85,2 [07EB51B4] [D09BE84B]
13 99,9 [269E8A22] [110C7B76]
14 92,5 [A5972D4B] [34E22F01]
15 86,5 [8B80F43E] [7C256AA8]
16 94,2 [79ACC021] [AD5241DF]
17 80,6 [4C13C2D6] [A4532C1E]
18 61,5 [5849E1FB] [1F0C004A]
19 86,7 [44C2BC8F] [4B77168A]
20 84,7 [534FC320] [5169937D]
21 92,9 [CDABBAC9] [A6899445]
22 74,2 [0FA7751E] [F3DE5775]
23 84,1 D9E95DC [DFB76CAE]
24 77,4 [2A5B2CF2] [81669E2D]

foobar2000 1.2 / Dynamic Range Meter 1.1.1
log date: 2015-08-30 15:12:24

Analyzed: Franz Halasz / Takemitsu - Complete Music for Solo Guitar

DR Peak RMS Duration Track

DR13 -2.09 dB -21.17 dB 2:41 01-All in Twilight - I. []
DR13 -0.44 dB -19.52 dB 2:50 02-All in Twilight - II. Dark
DR12 -2.28 dB -18.93 dB 1:43 03-All in Twilight - III. []
DR12 -1.49 dB -19.92 dB 2:31 04-All in Twilight - IV. Slightly Fast
DR12 -5.26 dB -21.73 dB 2:28 05-12 Songs - Secret Love (Sammy Fain)
DR13 -2.51 dB -19.74 dB 3:05 06-12 Songs - Yesterday (John Lennon & Paul McCartney)
DR12 -2.27 dB -18.81 dB 3:07 07-12 Songs - Hey Jude (John Lennon & Paul McCartney)
DR14 -1.28 dB -20.10 dB 3:02 08-12 Songs - Michelle (John Lennon & Paul McCartney)
DR13 -2.27 dB -19.93 dB 3:03 09-12 Songs - Here, There and Everywhere (John Lennon & Paul McCartney)
DR13 -2.22 dB -19.73 dB 3:41 10-12 Songs - Summertime (George Gershwin)
DR14 -2.78 dB -22.06 dB 4:57 11-Equinox
DR13 -1.39 dB -20.39 dB 2:13 12-Folios - I. []
DR14 0.00 dB -19.99 dB 2:29 13-Folios - II. []
DR12 -0.68 dB -18.24 dB 2:32 14-Folios - III. []
DR14 -1.26 dB -20.17 dB 3:00 15-In the Woods - I. Wainscot Pond - after a painting by Comelia Foss
DR14 -0.52 dB -20.66 dB 3:21 16-In the Woods - II. Rosedale
DR14 -1.87 dB -21.51 dB 4:33 17-In the Woods - III. Muir Woods
DR12 -4.22 dB -20.37 dB 2:59 18-12 Songs - A Song of early Spring (Akira Nakada)
DR12 -1.23 dB -18.00 dB 2:37 19-12 Songs - What a Friend (Charles C. Converse)
DR13 -1.44 dB -19.32 dB 2:27 20-12 Songs - Amours Perdues (Joseph Kosma)
DR14 -0.64 dB -18.70 dB 2:17 21-12 Songs - Over the Rainbow (Harold Arlen)
DR13 -2.59 dB -18.05 dB 1:56 22-12 Songs - The International (Pierre Degeyter)
DR14 -1.50 dB -19.38 dB 3:01 23-12 Songs - Londonderry Air (Irish Folk-song)
DR14 -2.22 dB -21.26 dB 3:39 24-The Last Waltz arranged for guitar (Les Reed & Barry Mason)

Number of tracks: 24
Official DR value: DR13

Samplerate: 44100 Hz
Channels: 2
Bits per sample: 16
Bitrate: 518 kbps
Codec: FLAC

Franz Halasz - All In Twilight - Toru Takemitsu: Complete Music for Solo Guitar (2000)

All thanks to original releaser - A-Z
Password: designol

DOWNLOAD LINKS:
(Premium Recommended)


All above links are interchangable. No password

Direct Download

Tags: Halasz, Twilight, Takemitsu, Complete, Guitar

Franz Halasz - All In Twilight - Toru Takemitsu: Complete Music for Solo Guitar (2000) Download via Hotfile Rapidshare Fileserve Megaupload & FileSonic, Franz Halasz - All In Twilight - Toru Takemitsu: Complete Music for Solo Guitar (2000) free torrent downloads included crack, serial, keygen.


Attention!Information

Members of Guest cannot leave comments.