Wishbone Ash - Argus (1972/1991)

Download Now

Wishbone Ash - Argus (1972/1991)

Wishbone Ash - Argus (1972/1991)
EAC Rip | FLAC (Img) + Cue + Log ~ 286 Mb | MP3 CBR320 ~ 124 Mb
Scans Included (JPG, 300 dpi) | RAR 5% Recovery
Progressive/Hard/Classic Rock | MCA Records #MCD 10234/MCAD 10234

"If Wishbone Ash can be considered a group who dabbled in the main strains of early-'70s British rock without ever settling on one (were they a prog rock outfit like Yes, a space rock unit like Pink Floyd, a heavy metal ensemble like Led Zeppelin, or just a boogie band like Ten Years After?), the confusion compounded by their relative facelessness and the generic nature of their compositions, Argus, their third album, was the one on which they looked like they finally were going to forge their own unique amalgamation of all those styles into a sound of their own..."

Wiki | Discogs | All Music
***************

Wishbone Ash - Argus (1972/1991)

Track List:

01. Time Was [09:45]
02. Sometime World [06:58]
03. Blowin' Free [05:20]
04. The King Will Come [07:08]
05. Leaf And Stream [03:57]
06. Warrior [05:54]
07. Throw Down The Sword [05:57]
08. No Easy Road onus Track [03:37]

Exact Audio Copy V1.0 beta 1 from 15. November 2010

EAC extraction logfile from 30. August 2015, 19:20

Wishbone Ash / Argus

Used drive : MATSHITADVD-RAM UJ8A0AS Adapter: 0 ID: 1

Read mode : Secure
Utilize accurate stream : Yes
Defeat audio cache : Yes
Make use of C2 pointers : No

Read offset correction

: 102
Overread into Lead-In and Lead-Out : No
Fill up missing offset samples with silence : Yes
Delete leading and trailing silent blocks : No
Null samples used in CRC calculations : Yes
Used interface
: Native Win32 interface for Win NT & 2000

Used output format : Internal WAV Routines
Sample format : 44.100 Hz; 16 Bit; Stereo

TOC of the extracted CD Track | Start | Length | Start sector | End sector
--1 | 0:00.00 | 9:44.50 | 0 | 43849 2 | 9:44.50 | 6:57.67 | 43850 | 75191 3 | 16:42.42 | 5:19.28 | 75192 | 99144 4 | 22:01.70 | 7:07.35 | 99145 | 131204 5 | 29:09.30 | 3:56.25 | 131205 | 148929 6 | 33:05.55 | 5:53.60 | 148930 | 175464 7 | 38:59.40 | 5:56.47 | 175465 | 202211 8 | 44:56.12 | 3:36.63 | 202212 | 218474

Range status and errors

Selected range Filename C:\Users\Alex\Music\Alexharvey\Wishbone Ash - Argus.wav Peak level 95.0 %
Extraction speed 0.0 X
Range quality 100.0 %
Test CRC 02DA7677
Copy CRC 02DA7677
Copy OK

No errors occurred


AccurateRip summary

Track 1 accurately ripped (confidence 9) [900743AE]
Track 2 accurately ripped (confidence 10) [DA9B3E70]
Track 3 accurately ripped (confidence 10) [73E907E7]
Track 4 accurately ripped (confidence 10) [18205FD0]
Track 5 accurately ripped (confidence 10) 0927A09
Track 6 accurately ripped (confidence 10) [42AE7B45]
Track 7 accurately ripped (confidence 10) [6AB963B7]
Track 8 accurately ripped (confidence 10) [338E5EE6]

All tracks accurately ripped

End of status report

==== Log checksum DECD027D9439D3F13624401D7496AACAD02B995203E65B9D2785EDAC4509831C ====

foobar2000 1.2.6 / Dynamic Range Meter 1.1.1
log date: 2015-08-31 12:07:15

Analyzed: Wishbone Ash / Argus

DR Peak RMS Duration Track

DR13 -0.44 dB -17.69 dB 9:45 01-Time Was
DR12 -0.67 dB -16.75 dB 6:58 02-Sometime World
DR12 -1.28 dB -16.30 dB 5:19 03-Blowin' Free
DR14 -0.53 dB -18.76 dB 7:07 04-The King Will Come
DR10 -5.35 dB -18.21 dB 3:56 05-Leaf And Stream
DR13 -0.63 dB -17.49 dB 5:54 06-Warrior
DR12 -0.78 dB -17.10 dB 5:57 07-Throw Down The Sword
DR11 -2.51 dB -15.99 dB 3:37 08-No Easy Road onus Track

Number of tracks: 8
Official DR value: DR12

Samplerate: 44100 Hz
Channels: 2
Bits per sample: 16
Bitrate: 764 kbps
Codec: FLAC

[CUETools log; Date: 31.08.2015 12:07:10; Version: 2.1.5]
[CTDB TOCID: Qs9ZAgprq7aY.Vdqnq4Dp6gV8gQ-] found.
Track | CTDB Status
1 | (15/15) Accurately ripped
2 | (15/15) Accurately ripped
3 | (15/15) Accurately ripped
4 | (15/15) Accurately ripped
5 | (15/15) Accurately ripped
6 | (15/15) Accurately ripped
7 | (14/15) Accurately ripped
8 | (14/15) Accurately ripped, or (1/15) differs in 3614 samples @00:00:29-00:00:32,00:00:37-00:00:41
[AccurateRip ID: 0010b34a-006be7c8-6d0b6108] found.
Track [ CRC | V2 ] Status
01 [900743ae|bb2e00ff] (11+09/30) Accurately ripped
02 [da9b3e70|6cb2dc8b] (11+10/31) Accurately ripped
03 [73e907e7|c012b98b] (11+10/31) Accurately ripped
04 [18205fd0|d7906775] (11+10/31) Accurately ripped
05 0927a09|f530dc32 (11+10/31) Accurately ripped
06 [42ae7b45|4b445981] (11+10/31) Accurately ripped
07 [6ab963b7|ae2890d5] (11+10/31) Accurately ripped
08 [338e5ee6|09daabc5] (10+10/30) Accurately ripped
Offsetted by -664:
01 [63d8153e] (04/30) Accurately ripped
02 [1334c280] (04/31) Accurately ripped
03 [1c3f7706] (04/31) Accurately ripped
04 [ace4b5c9] (04/31) Accurately ripped
05 [d97b7169] (04/31) Accurately ripped
06 [d7812d42] (04/31) Accurately ripped
07 [f63e3f9e] (04/31) Accurately ripped
08 [f1c3aefe] (04/30) Accurately ripped

Track Peak [ CRC32 ] [W/O NULL] [ LOG ]
-- 95,0 [02DA7677] [9FB100BB] CRC32
01 95,0 [C68784B4] [08400B67]
02 92,5 [F6E4C422] [3CB87CF7]
03 86,2 [0F15FA8C] [48A679EC]
04 94,0 [E642DE1D] [EA4D0B75]
05 53,9 [CB0F62CE] [FAA57C17]
06 92,9 [FCE2C598] [6160E54E]
07 91,4 [28D20B21] [48909EC4]
08 74,9 [20D55806] [197BA74F]

Wishbone Ash - Argus (1972/1991)

Wishbone Ash - Argus (1972/1991)


DOWNLOAD LINKS:
Buy Premium To Support Me & Get Resumable Support & Max Speed


Links are Interchangeable - No Password - Single Extraction

Direct Download

Tags: Wishbone

Wishbone Ash - Argus (1972/1991) Download via Hotfile Rapidshare Fileserve Megaupload & FileSonic, Wishbone Ash - Argus (1972/1991) free torrent downloads included crack, serial, keygen.


Attention!Information

Members of Guest cannot leave comments.