VA - The Best Latin Jazz Album In The World... Ever! (2004) 2CD

Download Now

VA - The Best Latin Jazz Album In The World... Ever! (2004) 2CD

VA - The Best Latin Jazz Album In The World... Ever! (2004) 2CD
EAC | FLAC | Tracks (Cue&Log) ~ 950 Mb (incl 5%) | Mp3 (CBR320) ~ 375 Mb (incl 5%) | Scans included
Genre: Latin Jazz, Bossa Nova, Samba | Label: EMI Gold | # 7243 4 73689 2 9 | Time: 02:27:00

"This overlooked gem has thirty two tracks of great music. The list includes: Herbie Hancock, Lou Donaldson, Stan Kenton, Horace Silver, Joe Henderson, Candido, Stanley Turrentine, Kenny Burrell and Willie Bobo among others."

Tracklist:

CD1:

01. Herbie Hancock - Cantaloupe Island (05:26)
02. Lou Donaldson - South Of The Border (05:32)
03. Cannonball Adderley & The Bossa Rio Sextet - Sambop (03:33)
04. Stan Kenton - The Peanut Vendor (02:43)
05. Nat King Cole - The Girl From Ipanema (02:55)
06. Grant Green - Mambo Inn (05:50)
07. Horace Silver - The Cape Verdean Blues (04:59)
08. George Shearing - Estampa Cubana (02:57)
09. Elza Soares - Mas Que Nada (02:25)
10. Joe Henderson - Blue Bossa (06:54)
11. Candido - Soul Limbo (05:39)
12. Hank Mobley - Recado Bossa Nova (08:13)
13. Art Pepper Quintet - Mambo De La Pinta (04:16)
14. Stanley Turrentine - La Fiesta (05:03)
15. Charlie Rouse - Back Down To The Tropics (03:55)
16. Willie Bobo - Trinidad (02:57)

CD2:

01. Kenny Burrell - Chitlins Con Carne (05:26)
02. Dexter Gordon - Manha De Carnival (06:43)
03. The Jazz Crusaders - Agua Dulce (Sweetwater) (05:18)
04. Dean Martin - Cha Cha Cha D'Amour (Melodie D'Amour) (02:19)
05. Herbie Hancock - Watermelon Man (07:04)
06. Cannonball Adderley With Sergio Mendes & The Bossa Rio Sextet - Groovy Samba (04:58)
07. Julie London - Desafinado (Slightly Out Of Tune) (02:04)
08. Donald Byrd - Cristo Redentor (05:41)
09. Grant Green - Besame Mucho (07:11)
10. Lee Morgan - Caramba (08:27)
11. Jack Costanzo - Latin Fever (03:00)
12. Horace Silver - Swingin' The Samba (05:16)
13. Laurindo Almeida & The Bossa Nova All-Stars - Misirlou (02:45)
14. Geoff Love & His Orchestra - One Note Samba (Samba De Uma Nota So) (02:23)
15. Ron Goodwin & His Orchestra - Do You Know The Way To San Jose? (02:31)
16. Joe Loss & His Orchestra - Tequila (02:24)


Exact Audio Copy V1.0 beta 3 from 29. August 2011

Отчёт EAC об извлечении, выполненном 20. декабря 2011, 9:06

Various / The Best Latin Jazz Album In The World ... Ever - CD1

Дисковод: TSSTcorpCDW/DVD TS-L462A Adapter: 1 ID: 0

Режим чтения : Достоверность
Использование точного потока : Да
Отключение кэша аудио : Да
Использование указателей C2 : Нет

Коррекция смещения при чтении : 6
Способность читать области Lead-in и Lead-out : Нет
Заполнение пропущенных сэмплов тишиной : Да
Удаление блоков с тишиной в начале и конце : Нет
При вычислениях CRC использовались нулевые сэмплы : Да
Интерфейс : Установленный внешний ASPI-интерфейс
Обработка зазоров
: Добавлено к предыдущему треку

Выходной формат : Пользовательский кодировщик
Выбранный битрейт : 128 kBit/s
Качество : Высокий
Добавление ID3-тега : Нет
Утилита сжатия : D:\Exact Audio Copy\FLAC\FLAC.EXE
Дополнительные параметры : -V -8 -T "Genre=%genre%" -T "Artist=%artist%" -T "Title=%title%" -T "Album=%albumtitle%" -T "Date=%year%" -T "Tracknumber=%tracknr%" -T "Comment=%comment%" %source%

TOC извлечённого CD Трек | Старт | Длительность | Начальный сектор | Конечный сектор

1 | 0:00.00 | 5:26.09 | 0 | 24458
2 | 5:26.09 | 5:32.29 | 24459 | 49387
3 | 10:58.38 | 3:33.59 | 49388 | 65421
4 | 14:32.22 | 2:43.51 | 65422 | 77697
5 | 17:15.73 | 2:55.64 | 77698 | 90886
6 | 20:11.62 | 5:50.07 | 90887 | 117143
7 | 26:01.69 | 4:59.19 | 117144 | 139587
8 | 31:01.13 | 2:57.11 | 139588 | 152873
9 | 33:58.24 | 2:25.73 | 152874 | 163821
10 | 36:24.22 | 6:54.39 | 163822 | 194910
11 | 43:18.61 | 5:39.68 | 194911 | 220403
12 | 48:58.54 | 8:13.45 | 220404 | 257423
13 | 57:12.24 | 4:16.20 | 257424 | 276643
14 | 61:28.44 | 5:03.67 | 276644 | 299435
15 | 66:32.36 | 3:55.63 | 299436 | 317123
16 | 70:28.24 | 2:57.39 | 317124 | 330437

Трек 1 Имя файла G:\Muzzik_2011\The Best Latin Jazz album in the world...ever!\CD 1\01. Herbie Hancock - Cantaloupe Island.wav Длина предзазора 0:00:02.00 Пиковый уровень 73.1 %
Скорость извлечения 1.8 X
Качество трека 100.0 %
CRC теста F9557C75
CRC копии F9557C75
Копирование... OK

Трек 2 Имя файла G:\Muzzik_2011\The Best Latin Jazz album in the world...ever!\CD 1\02. Lou Donaldson - South Of The Border.wav Длина предзазора 0:00:01.51 Пиковый уровень 94.4 %
Скорость извлечения 2.0 X
Качество трека 100.0 %
CRC теста 80D13128
CRC копии 80D13128
Копирование... OK

Трек 3 Имя файла G:\Muzzik_2011\The Best Latin Jazz album in the world...ever!\CD 1\03. Cannonball Adderley & The Bossa Rio Sextet - Sambop.wav Длина предзазора 0:00:01.51 Пиковый уровень 90.5 %
Скорость извлечения 1.8 X
Качество трека 99.9 %
CRC теста 074149A9
CRC копии 074149A9
Копирование... OK

Трек 4 Имя файла G:\Muzzik_2011\The Best Latin Jazz album in the world...ever!\CD 1\04. Stan Kenton - The Peanut Vendor.wav Длина предзазора 0:00:01.51 Пиковый уровень 87.7 %
Скорость извлечения 1.8 X
Качество трека 99.9 %
CRC теста DE793C45
CRC копии DE793C45
Копирование... OK

Трек 5 Имя файла G:\Muzzik_2011\The Best Latin Jazz album in the world...ever!\CD 1\05. Nat King Cole - The Girl From Ipanema.wav Длина предзазора 0:00:01.51 Пиковый уровень 91.5 %
Скорость извлечения 2.1 X
Качество трека 100.0 %
CRC теста 3B7A9B4A
CRC копии 3B7A9B4A
Копирование... OK

Трек 6 Имя файла G:\Muzzik_2011\The Best Latin Jazz album in the world...ever!\CD 1\06. Grant Green - Mambo Inn.wav Длина предзазора 0:00:01.51 Пиковый уровень 94.4 %
Скорость извлечения 2.4 X
Качество трека 100.0 %
CRC теста 0D037DB5
CRC копии 0D037DB5
Копирование... OK

Трек 7 Имя файла G:\Muzzik_2011\The Best Latin Jazz album in the world...ever!\CD 1\07. Horace Silver - The Cape Verdean Blues.wav Длина предзазора 0:00:01.51 Пиковый уровень 100.0 %
Скорость извлечения 2.5 X
Качество трека 100.0 %
CRC теста A934BE60
CRC копии A934BE60
Копирование... OK

Трек 8 Имя файла G:\Muzzik_2011\The Best Latin Jazz album in the world...ever!\CD 1\08. George Shearing - Estampa Cubana.wav Длина предзазора 0:00:01.51 Пиковый уровень 93.4 %
Скорость извлечения 2.5 X
Качество трека 100.0 %
CRC теста 9CC5C695
CRC копии 9CC5C695
Копирование... OK

Трек 9 Имя файла G:\Muzzik_2011\The Best Latin Jazz album in the world...ever!\CD 1\09. Elza Soares - Mas Que Nada.wav Длина предзазора 0:00:01.51 Пиковый уровень 73.0 %
Скорость извлечения 2.5 X
Качество трека 100.0 %
CRC теста 3D945931
CRC копии 3D945931
Копирование... OK

Трек 10 Имя файла G:\Muzzik_2011\The Best Latin Jazz album in the world...ever!\CD 1\10. Joe Henderson - Blue Bossa.wav Длина предзазора 0:00:01.51 Пиковый уровень 98.1 %
Скорость извлечения 2.9 X
Качество трека 100.0 %
CRC теста ABF91052
CRC копии ABF91052
Копирование... OK

Трек 11 Имя файла G:\Muzzik_2011\The Best Latin Jazz album in the world...ever!\CD 1\11. Candido - Soul Limbo.wav Длина предзазора 0:00:01.51 Пиковый уровень 76.9 %
Скорость извлечения 2.9 X
Качество трека 100.0 %
CRC теста F2AA3783
CRC копии F2AA3783
Копирование... OK

Трек 12 Имя файла G:\Muzzik_2011\The Best Latin Jazz album in the world...ever!\CD 1\12. Hank Mobley - Recado Bossa Nova.wav Длина предзазора 0:00:01.51 Пиковый уровень 97.7 %
Скорость извлечения 3.1 X
Качество трека 100.0 %
CRC теста 5DA31FBA
CRC копии 5DA31FBA
Копирование... OK

Трек 13 Имя файла G:\Muzzik_2011\The Best Latin Jazz album in the world...ever!\CD 1\13. Art Pepper Quintet - Mambo De La Pinta.wav Длина предзазора 0:00:01.51 Пиковый уровень 100.0 %
Скорость извлечения 2.8 X
Качество трека 99.9 %
CRC теста 6E607C23
CRC копии 6E607C23
Копирование... OK

Трек 14 Имя файла G:\Muzzik_2011\The Best Latin Jazz album in the world...ever!\CD 1\14. Stanley Turrentine - La Fiesta.wav Длина предзазора 0:00:01.51 Пиковый уровень 79.7 %
Скорость извлечения 3.2 X
Качество трека 100.0 %
CRC теста ADBE88C3
CRC копии ADBE88C3
Копирование... OK

Трек 15 Имя файла G:\Muzzik_2011\The Best Latin Jazz album in the world...ever!\CD 1\15. Charlie Rouse - Back Down To The Tropics.wav Длина предзазора 0:00:01.51 Пиковый уровень 90.5 %
Скорость извлечения 3.2 X
Качество трека 100.0 %
CRC теста 45E00F77
CRC копии 45E00F77
Копирование... OK

Трек 16 Имя файла G:\Muzzik_2011\The Best Latin Jazz album in the world...ever!\CD 1\16. Willie Bobo - Trinidad.wav Длина предзазора 0:00:01.51 Пиковый уровень 98.0 %
Скорость извлечения 3.1 X
Качество трека 100.0 %
CRC теста 892EEBAB
CRC копии 892EEBAB
Копирование... OK

Ошибок не произошло

Конец отчёта

==== Контрольная сумма отчёта 3D15AF9828BBE207C5E35C1FC295A8DA623A97984D9C950118BD6606975CC91B ====

foobar2000 1.2 / Dynamic Range Meter 1.1.1
log date: 2015-08-31 15:00:09

Analyzed: Art Pepper Quintet / The Best Latin Jazz Album In The World ... Ever - CD1 (1) Candido / The Best Latin Jazz Album In The World ... Ever - CD1 (2) Cannonball Adderley & The Bossa Rio Sextet / The Best Latin Jazz Album In The World ... Ever - CD1 (3) Charlie Rouse / The Best Latin Jazz Album In The World ... Ever - CD1 (4) Elza Soares / The Best Latin Jazz Album In The World ... Ever - CD1 (5) George Shearing / The Best Latin Jazz Album In The World ... Ever - CD1 (6) Grant Green / The Best Latin Jazz Album In The World ... Ever - CD1 (7) Hank Mobley / The Best Latin Jazz Album In The World ... Ever - CD1 (8) Herbie Hancock / The Best Latin Jazz Album In The World ... Ever - CD1 (9) Horace Silver / The Best Latin Jazz Album In The World ... Ever - CD1 (10) Joe Henderson / The Best Latin Jazz Album In The World ... Ever - CD1 (11) Lou Donaldson / The Best Latin Jazz Album In The World ... Ever - CD1 (12) Nat King Cole / The Best Latin Jazz Album In The World ... Ever - CD1 (13) Stan Kenton / The Best Latin Jazz Album In The World ... Ever - CD1 (14) Stanley Turrentine / The Best Latin Jazz Album In The World ... Ever - CD1 (15) Willie Bobo / The Best Latin Jazz Album In The World ... Ever - CD1 (16)

DR Peak RMS Duration Track

DR15 0.00 dB -17.02 dB 4:16 13-Mambo De La Pinta
DR12 -2.28 dB -16.26 dB 5:40 11-Soul Limbo
DR13 -0.86 dB -15.92 dB 3:34 03-Sambop
DR13 -0.87 dB -16.08 dB 3:56 15-Back Down To The Tropics
DR11 -2.73 dB -14.60 dB 2:26 09-Mas Que Nada
DR11 -0.59 dB -15.43 dB 2:57 08-Estampa Cubana
DR12 -0.50 dB -15.15 dB 5:50 06-Mambo Inn
DR13 -0.20 dB -16.96 dB 8:14 12-Recado Bossa Nova
DR12 -2.72 dB -17.32 dB 5:26 01-Cantaloupe Island
DR13 0.00 dB -14.79 dB 4:59 07-The Cape Verdean Blues
DR13 -0.16 dB -15.68 dB 6:55 10-Blue Bossa
DR13 -0.50 dB -15.39 dB 5:32 02-South Of The Border
DR12 -0.76 dB -15.95 dB 2:56 05-The Girl From Ipanema
DR10 -1.14 dB -13.50 dB 2:44 04-The Peanut Vendor
DR11 -1.96 dB -15.08 dB 5:04 14-La Fiesta
DR12 -0.18 dB -14.33 dB 2:58 16-Trinidad

Number of tracks: 16
Official DR value: DR12

Samplerate: 44100 Hz
Channels: 2
Bits per sample: 16
Bitrate: 757 kbps
Codec: FLAC

Exact Audio Copy V1.0 beta 3 from 29. August 2011

Отчёт EAC об извлечении, выполненном 20. декабря 2011, 15:38

Various / The Best Latin Jazz Album In The World... Ever! cd2

Дисковод: TSSTcorpCDW/DVD TS-L462A Adapter: 1 ID: 0

Режим чтения : Достоверность
Использование точного потока : Да
Отключение кэша аудио : Да
Использование указателей C2 : Нет

Коррекция смещения при чтении : 6
Способность читать области Lead-in и Lead-out : Нет
Заполнение пропущенных сэмплов тишиной : Да
Удаление блоков с тишиной в начале и конце : Нет
При вычислениях CRC использовались нулевые сэмплы : Да
Интерфейс : Установленный внешний ASPI-интерфейс
Обработка зазоров
: Добавлено к предыдущему треку

Выходной формат : Пользовательский кодировщик
Выбранный битрейт : 128 kBit/s
Качество : Высокий
Добавление ID3-тега : Нет
Утилита сжатия : D:\Exact Audio Copy\FLAC\FLAC.EXE
Дополнительные параметры : -V -8 -T "Genre=%genre%" -T "Artist=%artist%" -T "Title=%title%" -T "Album=%albumtitle%" -T "Date=%year%" -T "Tracknumber=%tracknr%" -T "Comment=%comment%" %source%

TOC извлечённого CD Трек | Старт | Длительность | Начальный сектор | Конечный сектор

1 | 0:00.00 | 5:26.08 | 0 | 24457
2 | 5:26.08 | 6:43.01 | 24458 | 54683
3 | 12:09.09 | 5:18.24 | 54684 | 78557
4 | 17:27.33 | 2:19.00 | 78558 | 88982
5 | 19:46.33 | 7:04.14 | 88983 | 120796
6 | 26:50.47 | 4:58.41 | 120797 | 143187
7 | 31:49.13 | 2:04.56 | 143188 | 152543
8 | 33:53.69 | 5:41.30 | 152544 | 178148
9 | 39:35.24 | 7:11.46 | 178149 | 210519
10 | 46:46.70 | 8:27.37 | 210520 | 248581
11 | 55:14.32 | 3:00.48 | 248582 | 262129
12 | 58:15.05 | 5:16.26 | 262130 | 285855
13 | 63:31.31 | 2:45.15 | 285856 | 298245
14 | 66:16.46 | 2:23.21 | 298246 | 308991
15 | 68:39.67 | 2:31.00 | 308992 | 320316
16 | 71:10.67 | 2:24.18 | 320317 | 331134

Трек 1 Имя файла G:\Muzzik_2011\The Best Latin Jazz album in the world...ever!\CD 2\01. Kenny Burrell - Chitlins Con Carne.wav Длина предзазора 0:00:02.00 Пиковый уровень 94.7 %
Скорость извлечения 1.8 X
Качество трека 100.0 %
CRC теста EEA5C417
CRC копии EEA5C417
Копирование... OK

Трек 2 Имя файла G:\Muzzik_2011\The Best Latin Jazz album in the world...ever!\CD 2\02. Dexter Gordon - Manha De Carnival.wav Длина предзазора 0:00:01.51 Пиковый уровень 82.6 %
Скорость извлечения 1.9 X
Качество трека 99.9 %
CRC теста 58BFB065
CRC копии 58BFB065
Копирование... OK

Трек 3 Имя файла G:\Muzzik_2011\The Best Latin Jazz album in the world...ever!\CD 2\03. The Jazz Crusaders - Agua Dulce (Sweetwater).wav Длина предзазора 0:00:01.51 Пиковый уровень 87.8 %
Скорость извлечения 2.2 X
Качество трека 100.0 %
CRC теста CFAD1684
CRC копии CFAD1684
Копирование... OK

Трек 4 Имя файла G:\Muzzik_2011\The Best Latin Jazz album in the world...ever!\CD 2\04. Dean Martin - Cha Cha Cha D'Amour (Melodie D'Amour).wav Длина предзазора 0:00:01.51 Пиковый уровень 100.0 %
Скорость извлечения 2.1 X
Качество трека 100.0 %
CRC теста C92970BB
CRC копии C92970BB
Копирование... OK

Трек 5 Имя файла G:\Muzzik_2011\The Best Latin Jazz album in the world...ever!\CD 2\05. Herbie Hancock - Watermelon Man.wav Длина предзазора 0:00:01.51 Пиковый уровень 80.0 %
Скорость извлечения 2.5 X
Качество трека 100.0 %
CRC теста 6F8573CD
CRC копии 6F8573CD
Копирование... OK

Трек 6 Имя файла G:\Muzzik_2011\The Best Latin Jazz album in the world...ever!\CD 2\06. Cannonball Adderley With Sergio Mendes & The Bossa Rio Sextet - Groovy Samba.wav Длина предзазора 0:00:01.51 Пиковый уровень 82.3 %
Скорость извлечения 2.6 X
Качество трека 100.0 %
CRC теста BB559844
CRC копии BB559844
Копирование... OK

Трек 7 Имя файла G:\Muzzik_2011\The Best Latin Jazz album in the world...ever!\CD 2\07. Julie London - Desafinado (Slightly Out Of Tune).wav Длина предзазора 0:00:01.51 Пиковый уровень 70.5 %
Скорость извлечения 2.3 X
Качество трека 100.0 %
CRC теста 2B04BBD9
CRC копии 2B04BBD9
Копирование... OK

Трек 8 Имя файла G:\Muzzik_2011\The Best Latin Jazz album in the world...ever!\CD 2\08. Donald Byrd - Cristo Redentor.wav Длина предзазора 0:00:01.51 Пиковый уровень 98.0 %
Скорость извлечения 2.7 X
Качество трека 100.0 %
CRC теста AF8CF76B
CRC копии AF8CF76B
Копирование... OK

Трек 9 Имя файла G:\Muzzik_2011\The Best Latin Jazz album in the world...ever!\CD 2\09. Grant Green - Besame Mucho.wav Длина предзазора 0:00:01.51 Пиковый уровень 81.6 %
Скорость извлечения 2.8 X
Качество трека 99.9 %
CRC теста 7BA5A959
CRC копии 7BA5A959
Копирование... OK

Трек 10 Имя файла G:\Muzzik_2011\The Best Latin Jazz album in the world...ever!\CD 2\10. Lee Morgan - Caramba.wav Длина предзазора 0:00:01.51 Пиковый уровень 82.9 %
Скорость извлечения 3.1 X
Качество трека 100.0 %
CRC теста 247D03EF
CRC копии 247D03EF
Копирование... OK

Трек 11 Имя файла G:\Muzzik_2011\The Best Latin Jazz album in the world...ever!\CD 2\11. Jack Costanzo - Latin Fever.wav Длина предзазора 0:00:01.51 Пиковый уровень 97.7 %
Скорость извлечения 2.9 X
Качество трека 100.0 %
CRC теста 11A37D4E
CRC копии 11A37D4E
Копирование... OK

Трек 12 Имя файла G:\Muzzik_2011\The Best Latin Jazz album in the world...ever!\CD 2\12. Horace Silver - Swingin' The Samba.wav Длина предзазора 0:00:01.51 Пиковый уровень 90.5 %
Скорость извлечения 3.2 X
Качество трека 100.0 %
CRC теста DFC9189D
CRC копии DFC9189D
Копирование... OK

Трек 13 Имя файла G:\Muzzik_2011\The Best Latin Jazz album in the world...ever!\CD 2\13. Laurindo Almeida & The Bossa Nova All-Stars - Misirlou.wav Длина предзазора 0:00:01.51 Пиковый уровень 97.5 %
Скорость извлечения 3.0 X
Качество трека 100.0 %
CRC теста AA883695
CRC копии AA883695
Копирование... OK

Трек 14 Имя файла G:\Muzzik_2011\The Best Latin Jazz album in the world...ever!\CD 2\14. Geoff Love & His Orchestra - One Note Samba (Samba De Uma Nota So).wav Длина предзазора 0:00:01.51 Пиковый уровень 94.6 %
Скорость извлечения 3.0 X
Качество трека 100.0 %
CRC теста AAC36041
CRC копии AAC36041
Копирование... OK

Трек 15 Имя файла G:\Muzzik_2011\The Best Latin Jazz album in the world...ever!\CD 2\15. Ron Goodwin & His Orchestra - Do You Know The Way To San Jose.wav Длина предзазора 0:00:01.51 Пиковый уровень 77.7 %
Скорость извлечения 3.0 X
Качество трека 100.0 %
CRC теста 5F07EB6D
CRC копии 5F07EB6D
Копирование... OK

Трек 16 Имя файла G:\Muzzik_2011\The Best Latin Jazz album in the world...ever!\CD 2\16. Joe Loss & His Orchestra - Tequila.wav Длина предзазора 0:00:01.51 Пиковый уровень 90.6 %
Скорость извлечения 3.0 X
Качество трека 100.0 %
CRC теста F4DDCFDB
CRC копии F4DDCFDB
Копирование... OK

Ошибок не произошло

Конец отчёта

==== Контрольная сумма отчёта 2658698BE113658AE0F8C69D18BF91568D3BABFFF0EE98F8CA55EFBBCAB49298 ====

foobar2000 1.2 / Dynamic Range Meter 1.1.1
log date: 2015-08-31 15:00:39

Analyzed: Cannonball Adderley With Sergio Mendes & The Bossa Rio Sextet / The Best Latin Jazz Album In The World... Ever! cd2 (1) Dean Martin / The Best Latin Jazz Album In The World... Ever! cd2 (2) Dexter Gordon / The Best Latin Jazz Album In The World... Ever! cd2 (3) Donald Byrd / The Best Latin Jazz Album In The World... Ever! cd2 (4) Geoff Love & His Orchestra / The Best Latin Jazz Album In The World... Ever! cd2 (5) Grant Green / The Best Latin Jazz Album In The World... Ever! cd2 (6) Herbie Hancock / The Best Latin Jazz Album In The World... Ever! cd2 (7) Horace Silver / The Best Latin Jazz Album In The World... Ever! cd2 (8) Jack Costanzo / The Best Latin Jazz Album In The World... Ever! cd2 (9) Joe Loss & His Orchestra / The Best Latin Jazz Album In The World... Ever! cd2 (10) Julie London / The Best Latin Jazz Album In The World... Ever! cd2 (11) Kenny Burrell / The Best Latin Jazz Album In The World... Ever! cd2 (12) Laurindo Almeida & The Bossa Nova All-Stars / The Best Latin Jazz Album In The World... Ever! cd2 (13) Lee Morgan / The Best Latin Jazz Album In The World... Ever! cd2 (14) Ron Goodwin & His Orchestra / The Best Latin Jazz Album In The World... Ever! cd2 (15) The Jazz Crusaders / The Best Latin Jazz Album In The World... Ever! cd2 (16)

DR Peak RMS Duration Track

DR11 -1.68 dB -15.28 dB 4:59 06-Groovy Samba
DR14 0.00 dB -17.14 dB 2:19 04-Cha Cha Cha D'Amour (Melodie D'Amour)
DR12 -1.65 dB -16.35 dB 6:43 02-Manha De Carnival
DR11 -0.17 dB -13.59 dB 5:41 08-Cristo Redentor
DR13 -0.48 dB -16.40 dB 2:23 14-One Note Samba (Samba De Uma Nota So)
DR11 -1.76 dB -15.17 dB 7:12 09-Besame Mucho
DR9 -1.93 dB -13.99 dB 7:04 05-Watermelon Man
DR13 -0.86 dB -15.65 dB 5:16 12-Swingin' The Samba
DR11 -0.20 dB -15.05 dB 3:01 11-Latin Fever
DR11 -0.86 dB -14.43 dB 2:24 16-Tequila
DR10 -3.03 dB -15.91 dB 2:05 07-Desafinado (Slightly Out Of Tune)
DR13 -0.47 dB -17.60 dB 5:26 01-Chitlins Con Carne
DR13 -0.21 dB -15.37 dB 2:45 13-Misirlou
DR12 -1.62 dB -15.85 dB 8:27 10-Caramba
DR10 -2.18 dB -14.45 dB 2:31 15-Do You Know The Way To San Jose?
DR13 -1.13 dB -16.05 dB 5:18 03-Agua Dulce (Sweetwater)

Number of tracks: 16
Official DR value: DR12

Samplerate: 44100 Hz
Channels: 2
Bits per sample: 16
Bitrate: 935 kbps
Codec: FLAC

VA - The Best Latin Jazz Album In The World... Ever! (2004) 2CD

All thanks to original releaser - petrash1978
Password: designol

DOWNLOAD LINKS
(Premium Recommended)


Links are Interchangeable - No Password - Single Extraction

Direct Download

VA - The Best Latin Jazz Album In The World... Ever! (2004) 2CD Download via Hotfile Rapidshare Fileserve Megaupload & FileSonic, VA - The Best Latin Jazz Album In The World... Ever! (2004) 2CD free torrent downloads included crack, serial, keygen.


Attention!Information

Members of Guest cannot leave comments.