Gary Wright - The Right Place (1981) [2015]

Download Now

Gary Wright - The Right Place (1981) [2015]

Gary Wright - The Right Place (1981) [2015]
EAC Rip | FLAC (Tracks) +CUE, LOG | 343MB | Covers Included
Rock | Label: Warner [Japan] | Catalog Number: IECP 10321

"Gary Malcolm Wright (born April 26, 1943) is an American singer, songwriter and musician, best known for his 1976 hit songs "Dream Weaver" and "Love Is Alive", and for his role in helping establish the synthesizer as a leading instrument in rock and pop music. Wright's breakthrough album, The Dream Weaver (1975), came after he had spent seven years in London as, alternately, a member of the British heavy rock band Spooky Tooth and a solo artist on A&M Records.."

Exact Audio Copy V1.0 beta 3 from 29. August 2011

EAC extraction logfile from 26. August 2015, 6:54

Gary Wright / The Right Place

Used drive : GENERIC CDRCB05 Adapter: 4 ID: 0

Read mode : Secure
Utilize accurate stream : Yes
Defeat audio cache : Yes
Make use of C2 pointers : No

Read offset correction

: 102
Overread into Lead-In and Lead-Out : No
Fill up missing offset samples with silence : Yes
Delete leading and trailing silent blocks : No
Null samples used in CRC calculations : Yes
Used interface
: Native Win32 interface for Win NT & 2000
Gap handling
: Appended to previous track

Used output format : User Defined Encoder
Selected bitrate : 1024 kBit/s
Quality : High
Add ID3 tag : No
Command line compressor : C:\Program Files\FLAC\flac.exe
Additional command line options : -8 -V -T "ARTIST=%artist%" -T "TITLE=%title%" -T "ALBUM=%albumtitle%" -T "DATE=%year%" -T "TRACKNUMBER=%tracknr%" -T "GENRE=%genre%" -T "PERFORMER=%albuminterpret%" -T "COMPOSER=%composer%" %haslyrics%--tag-from-file=LYRICS="%lyricsfile%"%haslyrics% -T "ALBUMARTIST=%albumartist%" -T "DISCNUMBER=%cdnumber%" -T "TOTALDISCS=%totalcds%" -T "TOTALTRACKS=%numtracks%" -T "COMMENT=%comment%" %source% -o %dest%

TOC of the extracted CD Track | Start | Length | Start sector | End sector
--1 | 0:00.00 | 0:29.06 | 0 | 2180 2 | 0:29.06 | 4:18.69 | 2181 | 21599 3 | 4:48.00 | 4:24.58 | 21600 | 41457 4 | 9:12.58 | 3:42.05 | 41458 | 58112 5 | 12:54.63 | 4:31.40 | 58113 | 78477 6 | 17:26.28 | 3:33.15 | 78478 | 94467 7 | 20:59.43 | 4:33.02 | 94468 | 114944 8 | 25:32.45 | 4:10.48 | 114945 | 133742 9 | 29:43.18 | 3:52.67 | 133743 | 151209
10 | 33:36.10 | 3:41.03 | 151210 | 167787

Track 1 Filename G:\POSTS\Gary Wright - The Right Place (1981) [2015]\01 - Intro.wav Pre-gap length 0:00:02.00 Peak level 98.8 %
Extraction speed 1.0 X
Track quality 100.0 %
Test CRC 6B271F3A
Copy CRC 6B271F3A
Track not present in AccurateRip database
Copy OK

Track 2 Filename G:\POSTS\Gary Wright - The Right Place (1981) [2015]\02 - Heartbeat.wav Peak level 98.8 %
Extraction speed 2.4 X
Track quality 100.0 %
Test CRC 527410EB
Copy CRC 527410EB
Track not present in AccurateRip database
Copy OK

Track 3 Filename G:\POSTS\Gary Wright - The Right Place (1981) [2015]\03 - Really Wanna Know You.wav Pre-gap length 0:00:02.42 Peak level 98.8 %
Extraction speed 2.7 X
Track quality 100.0 %
Test CRC F93F6560
Copy CRC F93F6560
Track not present in AccurateRip database
Copy OK

Track 4 Filename G:\POSTS\Gary Wright - The Right Place (1981) [2015]\04 - Got the Feelin'.wav Pre-gap length 0:00:01.68 Peak level 98.8 %
Extraction speed 2.5 X
Track quality 99.9 %
Test CRC 3555444E
Copy CRC 3555444E
Track not present in AccurateRip database
Copy OK

Track 5 Filename G:\POSTS\Gary Wright - The Right Place (1981) [2015]\05 - Love is a Rose.wav Peak level 98.8 %
Extraction speed 3.2 X
Track quality 100.0 %
Test CRC DC922EBF
Copy CRC DC922EBF
Track not present in AccurateRip database
Copy OK

Track 6 Filename G:\POSTS\Gary Wright - The Right Place (1981) [2015]\06 - The Right Place.wav Pre-gap length 0:00:00.65 Peak level 98.8 %
Extraction speed 3.2 X
Track quality 100.0 %
Test CRC 7A5C8717
Copy CRC 7A5C8717
Track not present in AccurateRip database
Copy OK

Track 7 Filename G:\POSTS\Gary Wright - The Right Place (1981) [2015]\07 - More than a Heartache.wav Peak level 98.8 %
Extraction speed 3.5 X
Track quality 100.0 %
Test CRC E9B31291
Copy CRC E9B31291
Track not present in AccurateRip database
Copy OK

Track 8 Filename G:\POSTS\Gary Wright - The Right Place (1981) [2015]\08 - Close to You.wav Peak level 98.8 %
Extraction speed 3.3 X
Track quality 99.9 %
Test CRC 0A02F84F
Copy CRC 0A02F84F
Track not present in AccurateRip database
Copy OK

Track 9 Filename G:\POSTS\Gary Wright - The Right Place (1981) [2015]\09 - Comin' Apart.wav Pre-gap length 0:00:03.70 Peak level 98.8 %
Extraction speed 3.8 X
Track quality 100.0 %
Test CRC 469F4271
Copy CRC 469F4271
Track not present in AccurateRip database
Copy OK

Track 10 Filename G:\POSTS\Gary Wright - The Right Place (1981) [2015]\10 - Positive Feelins.wav Pre-gap length 0:00:00.32 Peak level 98.8 %
Extraction speed 3.9 X
Track quality 100.0 %
Test CRC 55818B2F
Copy CRC 55818B2F
Track not present in AccurateRip database
Copy OK

None of the tracks are present in the AccurateRip database

No errors occurred

End of status report

==== Log checksum 3CAE7AF24FC4D23ABB638E3A61FCFC92948A3429F0E4462131F30A388B9DE9A4 ====

Tracklist:
01. Really Wanna Know You
02. Got The Feelin'
03. Love Is A Rose
04. The Right Place
05. More Than A Heartache
06. Close To You
07. Intro
08. Heartbeat
09. Comin' Apart
10. Positive Feelins'

℗ 1981 Warner Brothers Records
Download Links:
(Premium Recommended)


All above links are interchangable. No password

Direct Download

Tags: Wright

Gary Wright - The Right Place (1981) [2015] Download via Hotfile Rapidshare Fileserve Megaupload & FileSonic, Gary Wright - The Right Place (1981) [2015] free torrent downloads included crack, serial, keygen.


Attention!Information

Members of Guest cannot leave comments.