Bob Seger - Brand New Morning (1971)

Download Now

Bob Seger - Brand New Morning (1971)

Bob Seger - Brand New Morning (1971)
EAC | Flac(Image) + Cue + Log & MP3 CBR 320Kbps
Rock | 2009 | Lost Diamonds, 8000 5 2 | ~ 189 or 82 Mb | Scans Included

"Bob Seger's Mongrel may have been a terrific album, but nobody heard it, just like its predecessor. So Capitol was ready to drop him and wanted a contract-fulfilling album as soon as possible. Seger delivered the low-key, introspective Brand New Morning to get out of the deal. Later he claimed that the album was a collection of demos released somewhat against his will, but listening to the record it's hard to believe that these intimate yet fully realized songs were bare-bone work versions..."


Tracklist:

01. Brand New Morning (03:24)
02. Maybe Today (03:12)
03. Sometimes (05:15)
04. You Know Who You Are (03:18)
05. Railroad Days (06:57)
06. Louise (02:49)
07. Song for Him (04:36)
08. Something Like (03:30)

Exact Audio Copy V0.99 prebeta 5 from 4. May 2009

EAC extraction logfile from 23. April 2010, 17:30

Bob Seger / Brand New Morning

Used drive : HL-DT-STDVDRAM GSA-H10A Adapter: 4 ID: 1

Read mode : Secure
Utilize accurate stream : Yes
Defeat audio cache : Yes
Make use of C2 pointers : No

Read offset correction

: 667
Overread into Lead-In and Lead-Out : No
Fill up missing offset samples with silence : Yes
Delete leading and trailing silent blocks : No
Null samples used in CRC calculations : Yes
Used interface
: Native Win32 interface for Win NT & 2000
Gap handling
: Appended to previous track

Used output format : User Defined Encoder
Selected bitrate : 128 kBit/s
Quality : High
Add ID3 tag : No
Command line compressor : C:\Program Files\Exact Audio Copy\iTunesEncode\iTunesEncode.exe
Additional command line options : -e "Lossless Encoder" -a "%a" -l "%g" -t "%t" -g "%m" -y %y -n %n -i %s -o %d

TOC of the extracted CD Track | Start | Length | Start sector | End sector
--1 | 0:00.00 | 3:23.52 | 0 | 15276 2 | 3:23.52 | 3:11.72 | 15277 | 29673 3 | 6:35.49 | 5:14.66 | 29674 | 53289 4 | 11:50.40 | 3:18.19 | 53290 | 68158 5 | 15:08.59 | 6:56.72 | 68159 | 99430 6 | 22:05.56 | 2:49.02 | 99431 | 112107 7 | 24:54.58 | 4:35.65 | 112108 | 132797 8 | 29:30.48 | 3:29.56 | 132798 | 148528

Track 1 Filename D:\Music\iTunes\EAC\Bob Seger\Brand New Morning\01 Brand New Morning.wav Pre-gap length 0:00:02.00 Peak level 98.1 %
Track quality 100.0 %
Test CRC 065131F2
Copy CRC 065131F2
Track not present in AccurateRip database
Copy OK

Track 2 Filename D:\Music\iTunes\EAC\Bob Seger\Brand New Morning\02 Maybe Today.wav Peak level 98.0 %
Track quality 100.0 %
Test CRC DD3C847B
Copy CRC DD3C847B
Track not present in AccurateRip database
Copy OK

Track 3 Filename D:\Music\iTunes\EAC\Bob Seger\Brand New Morning\03 Sometimes.wav Peak level 97.7 %
Track quality 100.0 %
Test CRC 0988FB62
Copy CRC 0988FB62
Track not present in AccurateRip database
Copy OK

Track 4 Filename D:\Music\iTunes\EAC\Bob Seger\Brand New Morning\04 You Know Who You Are.wav Peak level 94.6 %
Track quality 99.9 %
Test CRC E1B9C508
Copy CRC E1B9C508
Track not present in AccurateRip database
Copy OK

Track 5 Filename D:\Music\iTunes\EAC\Bob Seger\Brand New Morning\05 Railroad Days.wav Peak level 98.1 %
Track quality 100.0 %
Test CRC 5867CF6D
Copy CRC 5867CF6D
Track not present in AccurateRip database
Copy OK

Track 6 Filename D:\Music\iTunes\EAC\Bob Seger\Brand New Morning\06 Louise.wav Peak level 98.2 %
Track quality 99.9 %
Test CRC 4BBAED0A
Copy CRC 4BBAED0A
Track not present in AccurateRip database
Copy OK

Track 7 Filename D:\Music\iTunes\EAC\Bob Seger\Brand New Morning\07 Song for Him.wav Peak level 97.4 %
Track quality 100.0 %
Test CRC 062A4F11
Copy CRC 062A4F11
Track not present in AccurateRip database
Copy OK

Track 8 Filename D:\Music\iTunes\EAC\Bob Seger\Brand New Morning\08 Something Like.wav Peak level 82.5 %
Track quality 100.0 %
Test CRC D4A0151F
Copy CRC D4A0151F
Track not present in AccurateRip database
Copy OK

None of the tracks are present in the AccurateRip database

No errors occurred

End of status report

foobar2000 1.2.9 / Dynamic Range Meter 1.1.1
log date: 2015-08-31 16:55:24

Analyzed: Bob Seger / Brand New Morning

DR Peak RMS Duration Track

DR13 -0.16 dB -15.63 dB 3:24 01-Brand New Morning
DR12 -0.17 dB -16.42 dB 3:12 02-Maybe Today
DR16 -0.20 dB -20.62 dB 5:15 03-Sometimes
DR13 -0.48 dB -17.37 dB 3:18 04-You Know Who You Are
DR14 -0.16 dB -17.55 dB 6:57 05-Railroad Days
DR12 -0.15 dB -14.03 dB 2:49 06-Louise
DR12 -0.22 dB -17.27 dB 4:36 07-Song for Him
DR13 -1.67 dB -17.75 dB 3:30 08-Something Like

Number of tracks: 8
Official DR value: DR13

Samplerate: 44100 Hz
Channels: 2
Bits per sample: 16
Bitrate: 760 kbps
Codec: FLAC

[CUETools log; Date: 31.08.2015 17:05:22; Version: 2.1.4]
[CTDB TOCID: Btrblz7Ee24VaCPW80_2jahE4d4-] found.
Track | CTDB Status
1 | (2/2) Accurately ripped
2 | (2/2) Accurately ripped
3 | (2/2) Accurately ripped
4 | (2/2) Accurately ripped
5 | (2/2) Accurately ripped
6 | (2/2) Accurately ripped
7 | (2/2) Accurately ripped
8 | (2/2) Accurately ripped
[AccurateRip ID: 000a0f42-0043f683-6207bc08] found.
Track [ CRC | V2 ] Status
01 [c0bc1bd8|0ed36f7e] (0+2/2) Accurately ripped
02 [4c32f07b|bf188943] (0+2/2) Accurately ripped
03 [3ceb36ad|3e3d82ea] (0+2/2) Accurately ripped
04 [713b40f4|f376176f] (0+2/2) Accurately ripped
05 [4a3e2c33|adaec59b] (0+2/2) Accurately ripped
06 [2892666a|e20c1a9a] (0+2/2) Accurately ripped
07 [fba4d601|4576905c] (0+2/2) Accurately ripped
08 [fea1ba12|0b32e320] (0+2/2) Accurately ripped

Track Peak [ CRC32 ] [W/O NULL] [ LOG ]
-- 98,2 [4F484254] [23825B1C]
01 98,1 [065131F2] [C2722046] CRC32
02 98,0 [DD3C847B] [F6080BCF] CRC32
03 97,7 [0988FB62] [283BE175] CRC32
04 94,6 [E1B9C508] [0158F756] CRC32
05 98,1 [5867CF6D] [2E3B6A3B] CRC32
06 98,2 [4BBAED0A] [4386A1B7] CRC32
07 97,4 [062A4F11] [CB34A6BD] CRC32
08 82,5 [D4A0151F] [5110FA0A] CRC32

Bob Seger - Brand New Morning (1971)

Download Links:
(Premium Recommended)


All above links are interchangable. No password

Direct Download

Tags: Morning

Bob Seger - Brand New Morning (1971) Download via Hotfile Rapidshare Fileserve Megaupload & FileSonic, Bob Seger - Brand New Morning (1971) free torrent downloads included crack, serial, keygen.


Attention!Information

Members of Guest cannot leave comments.