Flash And The Pan - Burning Up The Night (1992)

Download Now

Flash And The Pan - Burning Up The Night (1992)

Flash And The Pan - Burning Up The Night (1992)
EAC | FLAC | Tracks (Cue&Log) ~ 350 Mb (incl 5%) | Mp3 (CBR320) ~ 168 Mb (incl 5%) | Scans included
Genre: New Wave, Contemporary Pop/Rock | Label: Epic/Albert Productions | # 472051 2 | Time: 00:48:20

""Burning Up The Night" was the last release. And that was in 1992. This cd is mostly keyboards and less guitar than what fans are used to, but still is catchy with lots of hooks. As with all their albums, it's impossible to pick a favorite. For Flash & The Pan fans an absolute must. The sound is a bit different from their prior outings but still astonishing. If you see it listed, get it, since it's hard to come by and that chance may never come again."

"I just finished John Tait's very interesting and well-researched book about Harry Vanda and George Young. During the process of reading the story I obviously have been through welcome renditions of some of the music created by the two musical geniuses over four decades. Naturally, the Easybeats, but also Grapefruit, John Paul Young, Marcus Hook Roll Band and not least their somewhat overlooked climax as the studio group Flash And The Pan.

Flash And The Pan was in 1977 intended as yet another one-off for the Vanda and Young collaboration, but instead the concept lasted for 15 years over six albums. All these albums are of very high class and deserve to be known or rediscovered by much more people than what seems to be the case these days.

Vanda and Young actually created a whole new genre that was not really new wave, not really pop, not exactly rock and not rap (rap had not yet surfaced) but which had elements from all these styles. Most charateristic is probably the compressed vocals, usually sung / spoken by George Young. The two songwriters' flair for writing melodic and catchy melodies with intelligent lyrics is highlighted on all Flash and the Pan albums.

In the book Harry Vanda is quoted for saying that they possibly should not have released the last album, "Burning Up the Night" in 1992. This caused me to take the album in defense, since I definitely think it belongs in the collection, containing some very strong songs. Not least the thoughtful "On My Way," which might well be interpreted as a flashback of the two musicians' credits over four decades - a very strong track that also would have worked perfectly as a closing track.

Likewise "Secret Eyes" is a song you can not just let go. Melodic and mysterious.

"Living on Dreams" is classic F & P with a catchy beat and melodic chorus - perhaps not quite on par with "Midnight Man" - but close. The same description could apply for "Vacuum of Emotion", which perhaps has even more obvious commercial appeal. "Ivy Love" is perhaps not so marked, but does stand out in an exciting saxophone solo (a keyboard?). "Searching for a Headline" is an upbeat number, which should be noted for a very effective rock guitar solo. "Bad Love" with its funky beat may lead your thoughts towards Steely Dan - not a bad place to go.

Neither "Do It", "I'm On The Level With You" nor "Burning Up the Night" are among the duo's most memorable tracks, but the songs work quite well in the context. "Only the Bad Survive" is a rare blues from Vanda Young, again one must enjoy Vanda guitar solo work and "3 Into 2" is the album's clearest rocker - and thus somewhat surprising in the Flash And The Band concept.

Conclusion: Obviously not a bad album, though it does nok quite rank up with Flash and the Pan masterpieces such as the debut album, "Lights in the Night" or "Nights in France".

Review by Morten Vindberg, Amazon.com
"




Tracklist:

01. Living On Dreams (03:32)
02. Vacuum Of Emotion (03:42)
03. Ivy Love (03:36)
04. Searching For A Headline (04:46)
05. Bad Love (04:05)
06. Do It (03:45)
07. On The Level With You (03:47)
08. On My Way (04:37)
09. Burning Up The Night (03:46)
10. Only The Bad Survive (04:08)
11. Secret Eyes (04:26)
12. 3 Into 2 (04:06)


Exact Audio Copy V1.0 beta 4 from 7. December 2014

EAC extraction logfile from 9. August 2015, 21:57

Flash And The Pan / Burning Up The Night

Used drive : TSSTcorpCDDVDW SH-224DB Adapter: 1 ID: 0

Read mode : Secure
Utilize accurate stream : Yes
Defeat audio cache : Yes
Make use of C2 pointers : No

Read offset correction

: 6
Overread into Lead-In and Lead-Out : No
Fill up missing offset samples with silence : Yes
Delete leading and trailing silent blocks : No
Null samples used in CRC calculations : Yes
Used interface
: Native Win32 interface for Win NT & 2000
Gap handling
: Appended to previous track

Used output format : User Defined Encoder
Selected bitrate : 896 kBit/s
Quality : High
Add ID3 tag : No
Command line compressor : C:\Program Files\Exact Audio Copy\Flac\flac.exe
Additional command line options : -6 -V -T "ARTIST=%artist%" -T "TITLE=%title%" -T "ALBUM=%albumtitle%" -T "DATE=%year%" -T "TRACKNUMBER=%tracknr%" -T "GENRE=%genre%" -T "COMMENT=%comment%" %source% -o %dest%

TOC of the extracted CD Track | Start | Length | Start sector | End sector
--1 | 0:00.00 | 3:32.10 | 0 | 15909 2 | 3:32.10 | 3:42.12 | 15910 | 32571 3 | 7:14.22 | 3:36.65 | 32572 | 48836 4 | 10:51.12 | 4:46.05 | 48837 | 70291 5 | 15:37.17 | 4:05.10 | 70292 | 88676 6 | 19:42.27 | 3:45.68 | 88677 | 105619 7 | 23:28.20 | 3:47.62 | 105620 | 122706 8 | 27:16.07 | 4:37.60 | 122707 | 143541 9 | 31:53.67 | 3:46.05 | 143542 | 160496
10 | 35:39.72 | 4:08.20 | 160497 | 179116
11 | 39:48.17 | 4:26.03 | 179117 | 199069
12 | 44:14.20 | 4:06.05 | 199070 | 217524

Track 1 Filename C:\New Folder\01 - Living On Dreams.wav Pre-gap length 0:00:02.00 Peak level 92.6 %
Extraction speed 1.5 X
Track quality 99.9 %
Test CRC C73573D3
Copy CRC C73573D3
Accurately ripped (confidence 5) [23C011D6] (AR v2)
Copy OK

Track 2 Filename C:\New Folder\02 - Vacuum Of Emotion.wav Pre-gap length 0:00:03.03 Peak level 99.9 %
Extraction speed 1.8 X
Track quality 100.0 %
Test CRC EFBA253D
Copy CRC EFBA253D
Accurately ripped (confidence 5) [7E0AAFB1] (AR v2)
Copy OK

Track 3 Filename C:\New Folder\03 - Ivy Love.wav Peak level 72.3 %
Extraction speed 2.0 X
Track quality 100.0 %
Test CRC 6E997D98
Copy CRC 6E997D98
Accurately ripped (confidence 4) [DF0F983C] (AR v2)
Copy OK

Track 4 Filename C:\New Folder\04 - Searching For A Headline.wav Pre-gap length 0:00:02.52 Peak level 94.0 %
Extraction speed 2.2 X
Track quality 100.0 %
Test CRC 5289EE64
Copy CRC 5289EE64
Accurately ripped (confidence 4) [A5C8C0A9] (AR v2)
Copy OK

Track 5 Filename C:\New Folder\05 - Bad Love.wav Peak level 86.7 %
Extraction speed 2.4 X
Track quality 100.0 %
Test CRC 1A0FA21A
Copy CRC 1A0FA21A
Accurately ripped (confidence 4) [4CB6F92E] (AR v2)
Copy OK

Track 6 Filename C:\New Folder\06 - Do It.wav Pre-gap length 0:00:02.40 Peak level 88.1 %
Extraction speed 2.5 X
Track quality 100.0 %
Test CRC A79DC645
Copy CRC A79DC645
Accurately ripped (confidence 4) [D78181D5] (AR v2)
Copy OK

Track 7 Filename C:\New Folder\07 - On The Level With You.wav Pre-gap length 0:00:01.70 Peak level 86.5 %
Extraction speed 2.6 X
Track quality 100.0 %
Test CRC 043CB9BD
Copy CRC 043CB9BD
Accurately ripped (confidence 4) [9BC4A2C3] (AR v2)
Copy OK

Track 8 Filename C:\New Folder\08 - On My Way.wav Peak level 48.0 %
Extraction speed 2.8 X
Track quality 100.0 %
Test CRC 7B1169B1
Copy CRC 7B1169B1
Accurately ripped (confidence 4) [8279C7E9] (AR v2)
Copy OK

Track 9 Filename C:\New Folder\09 - Burning Up The Night.wav Peak level 89.3 %
Extraction speed 2.3 X
Track quality 99.9 %
Test CRC BA9DA81D
Copy CRC BA9DA81D
Accurately ripped (confidence 5) [E80175AA] (AR v2)
Copy OK

Track 10 Filename C:\New Folder\10 - Only The Bad Survive.wav Peak level 85.8 %
Extraction speed 3.0 X
Track quality 100.0 %
Test CRC 553A094C
Copy CRC 553A094C
Accurately ripped (confidence 4) [6653A375] (AR v2)
Copy OK

Track 11 Filename C:\New Folder\11 - Secret Eyes.wav Peak level 54.9 %
Extraction speed 3.1 X
Track quality 100.0 %
Test CRC F96F88CE
Copy CRC F96F88CE
Accurately ripped (confidence 4) [2EA8F950] (AR v2)
Copy OK

Track 12 Filename C:\New Folder\12 - 3 Into 2.wav Pre-gap length 0:00:02.10 Peak level 90.1 %
Extraction speed 3.2 X
Track quality 100.0 %
Test CRC 5C68DA6F
Copy CRC 5C68DA6F
Accurately ripped (confidence 4) [AFD51593] (AR v2)
Copy OK

All tracks accurately ripped

No errors occurred

End of status report

- CUETools DB Plugin V2.1.4

[CTDB TOCID: cSKXkkLWYDLLKobsmxW9BndM9FM-] found
Submit result: cSKXkkLWYDLLKobsmxW9BndM9FM- has been confirmed
Track | CTDB Status
1 | (17/17) Accurately ripped
2 | (17/17) Accurately ripped
3 | (17/17) Accurately ripped
4 | (17/17) Accurately ripped
5 | (17/17) Accurately ripped
6 | (17/17) Accurately ripped
7 | (17/17) Accurately ripped
8 | (17/17) Accurately ripped
9 | (17/17) Accurately ripped
10 | (17/17) Accurately ripped
11 | (17/17) Accurately ripped
12 | (17/17) Accurately ripped

==== Log checksum 416CD54E9F83A8401C0809CE4CFE698748C086AE17C549DD5F7CE1DA3777A18F ====

foobar2000 1.2 / Dynamic Range Meter 1.1.1
log date: 2015-08-31 13:17:25

Analyzed: Flash And The Pan / Burning Up The Night

DR Peak RMS Duration Track

DR14 -0.66 dB -17.49 dB 3:32 01-Living On Dreams
DR14 -0.01 dB -16.73 dB 3:42 02-Vacuum Of Emotion
DR13 -2.81 dB -18.30 dB 3:37 03-Ivy Love
DR14 -0.53 dB -16.04 dB 4:46 04-Searching For A Headline
DR14 -1.23 dB -17.74 dB 4:05 05-Bad Love
DR13 -1.09 dB -16.31 dB 3:46 06-Do It
DR15 -1.26 dB -17.94 dB 3:48 07-On The Level With You
DR14 -6.37 dB -21.88 dB 4:38 08-On My Way
DR14 -0.98 dB -16.80 dB 3:46 09-Burning Up The Night
DR14 -1.33 dB -18.16 dB 4:08 10-Only The Bad Survive
DR13 -5.20 dB -19.96 dB 4:26 11-Secret Eyes
DR14 -0.90 dB -16.92 dB 4:06 12-3 Into 2

Number of tracks: 12
Official DR value: DR14

Samplerate: 44100 Hz
Channels: 2
Bits per sample: 16
Bitrate: 855 kbps
Codec: FLAC

Flash And The Pan - Burning Up The Night (1992)

Flash And The Pan - Burning Up The Night (1992)

All thanks to original releaser - alekow
Password: designol

DOWNLOAD LINKS:
Buy Premium To Support Me & Get Resumable Support & Max Speed


Links are Interchangeable - No Password - Single Extraction

Direct Download

Tags: Burning

Flash And The Pan - Burning Up The Night (1992) Download via Hotfile Rapidshare Fileserve Megaupload & FileSonic, Flash And The Pan - Burning Up The Night (1992) free torrent downloads included crack, serial, keygen.


Attention!Information

Members of Guest cannot leave comments.