Kenny Rogers - Love Lifted Me (1976) & Kenny Rogers (1976) [2CD] (2009, Reissue)

Download Now

Kenny Rogers - Love Lifted Me (1976) & Kenny Rogers (1976) [2CD] (2009, Reissue)

Kenny Rogers - Love Lifted Me (1976) & Kenny Rogers (1976) [2CD] (2009, Reissue)
Country, Pop/Rock | EAC Rip | FLAC, Img+CUE + LOG + Full Scans-300dpi (JPEG) | 33:13 + 35:49 Min | 436,20 Mb
Label: Edsel Records (EU) | Released: 2009, July, 14

"
2009 two CD set containing a pair of albums from the Country superstar, originally released on the United Artists and Liberty labels at the height of his worldwide popularity between 1976 and 1983. Though Rogers achieved success at the tail end of the '60s with his band The First Edition, it wasn't until he fully crossed over into the Country market that international fame came calling. Ironically, his move away from the Pop charts actually brought him more success once Country Music began to crossover into the same market he had initially given up on. Contains the albums Love Lifted Me (1976) and Kenny Rogers (1977). 21 tracks.
"

Kenny Rogers - Love Lifted Me (1976) & Kenny Rogers (1976) [2CD] (2009, Reissue)

Kenny Rogers - Love Lifted Me (1976) & Kenny Rogers (1976) [2CD] (2009, Reissue)

Kenny Rogers - Love Lifted Me (1976) & Kenny Rogers (1976) [2CD] (2009, Reissue)


Release of those albums: "Love Lifted Me" - 1976, July [LP United Artists Records, Cat.# UA-LA607-G, USA; "Kenny Rogers" - 1976, November [LP United Artists Records, Cat.# UA-LA689-G, USA]
Release of this CD: 2009, July, 14 [CD Edsel Records (EU), Cat.# EDSD 2039 / EAN: 740155203931]
Licensed courtesy of EMI Records Ltd. © 2009 Demon Music Group Ltd.
Disc 1 ℗ 1976 (*1975), Disc 2 ℗ 1976 The copyright of those sound recordings is owned by Capitol Records Nashville
Marketed by Edsel, a division of the Demon Music Group Ltd.
Manufactured in the EU.

~Love Lifted Me~
Arranged By [Strings] - Bill Justis
Bass - Bob Moore, Tommy Allsup
Drums - Buddy Harman, Jerry Carrigan, Kenny Malone
Engineer - Billy Sherrill, Rick Horton (tracks: 4)
Guitar - Billy Sanford, Dale Sellers, Fred Carter, Jack Eubanks, Jerry Shook, Jimmy Capps, Jim Colvard, Kelso Herston, Pete Wade
Piano - George Richey, Hargus "Pig" Robbins
Producer - Larry Butler
Steel Guitar - Pete Drake
Vocals - Carol Montgomery, Jordanaires, The

~Kenny Rogers~
Arranged By [Strings] - Bill Justis
Art Direction - Ria Lewerke
Backing Vocals - Bergen White, Buzz Cason, Don Gant, Johnny MacCrea, Jordanaires, The, Larry Keith, Steve Pippin
Bass - Bob Moore, Joe Osborn
Bass Guitar - Tommy Allsup
Drums [Percussion] - Buddy Harmon, Jerry Carrigan, Kenny Malone
Engineer - Billy Sherrill, Harold Lee
Fiddle - Tommy Williams
Guitar - Billy Sanford, Dale Sellers, Dave Kirby, Fred Carter, Jerry Shook, Jimmy Capps, Johnny Christopher, Pete Wade, Ray Edenton, Reggie Young, Steve Gibson
Keyboards - Bobby Wood, Charles 'Chuck' Cochran, George Richey, Hargus 'Pig' Robbins, Larry Butler
Producer - Larry Butler
Steel Guitar - Pete Drake
Strings - Brenton Banks, Byron Theodore Bach, Carl Gorodetzky, Gary Vanosdale, George Binkley, Lennie Haight, Marvin Chantry, Pamela Sixfin, Roy Christensen, Sheldon Kurland, Stephanie Woolf, Steven Maxwell Smith
Synthesizer [Moog] - Shane Keister


Tracklist:

Love Lifted Me (1976):

01. Love Lifted Me (03:48)
(H. Smith, J. Rowe)
02. Medley: Abraham, Martin And John / Precious Memories (04:17)
(D. Holler)
03. I Would Like To See You Again (03:07)
(C. Craig, L. Atwood)
04. Runaway Girl (02:46)
(G. Richey, L. Butler)
05. The World Needs A Melody (03:29)
(J. Slate, L. Henley, R. Lane)
06. You Gotta Be Tired (02:54)
(E. Bruce, L. Butler)
07. Home-Made Love (02:28)
(R. Mainegra)
08. While The Feeling's Good (04:02)
(R. Bowling)
09. Heavenly Sunshine (02:43)
(G. Richey, G. Sutton)
10. There's An Old Man In Our Town (03:38)
(K. Rogers)

Kenny Rogers (1976):

01. Laura (What's He Got That I Ain't Got) (02:53)
(L. Ashley, M. Singleton)
02. I Wasn't Man Enough (03:29)
(L. Butler, R. Bowling)
03. Mother Country Music (02:48)
(J. Nixon)
04. Why Don't We Go Somewhere And Love (03:30)
(K. O'Dell, L. Henley)
05. Green Green Grass Of Home (03:35)
(C. Putnam)
06. Till I Get It Right (03:05)
(L. Henley, R. Lane)
07. Lucille (03:42)
(H. Bynum, R. Bowling)
08. The Son Of Hickory Holler's Tramp (03:11)
(D. Frazier)
09. Lay Down Beside Me (03:55)
(D. Williams)
10. Puttin In Overtime At Home (03:00)
(B. Peters)
11. While I Play The Fiddle (02:43)
(R. Willis, R. Sessions)

Отчёт EAC об извлечении, выполненном 4. февраля 2011, 22:46 для диска:
Kenny Rogers / "Love Lifted Me"

Дисковод: PIONEER DVD-RW DVR-216D Adapter: 2 ID: 0
Режим чтения: Достоверный (C2: нет, Точный поток: да, Отключение кэша: да)
Коррекция смещения при чтении: -39
Способность читать области Lead-in и Lead-out : Нет

Выходной формат: Внутренние WAV-операции 44.100 Гц; 16 бит; стерео

Другие параметры:
Заполнение пропущенных сэмплов тишиной : Да
Удаление блоков с тишиной в начале и конце : Нет
Встроенный Win32-интерфейс для Win NT/2000

Характеристики диапазона извлечения и сообщения об ошибках
Выбранный диапазон
Имя файла I:\МУЗЫКА - Виталий\WAV - FLAC\Kenny Rogers\1976 - Love Lifted Me + 1976 Kenny Rogers\1976 - Love Lefted Me\Kenny Rogers - Love Lifted Me .wav Пиковый уровень 98.7 %
Качество диапазона 100.0 %
CRC D351054C
Копирование... OK

Ошибок не произошло

Конец отчёта

Отчёт EAC об извлечении, выполненном 5. февраля 2011, 10:43 для диска:
Kenny Rogers / "Kenny Rogers (aka Lucille)"

Дисковод: PIONEER DVD-RW DVR-216D Adapter: 2 ID: 0
Режим чтения: Достоверный (C2: нет, Точный поток: да, Отключение кэша: да)
Коррекция смещения при чтении: -39
Способность читать области Lead-in и Lead-out : Нет

Выходной формат: Внутренние WAV-операции 44.100 Гц; 16 бит; стерео

Другие параметры:
Заполнение пропущенных сэмплов тишиной : Да
Удаление блоков с тишиной в начале и конце : Нет
Встроенный Win32-интерфейс для Win NT/2000

Характеристики диапазона извлечения и сообщения об ошибках
Выбранный диапазон
Имя файла I:\МУЗЫКА - Виталий\WAV - FLAC\Kenny Rogers\1976 - Love Lifted Me + 1976 Kenny Rogers\1976 - Kenny Rogers\Kenny Rogers - Kenny Rogers (aka Lucille) .wav Пиковый уровень 98.7 %
Качество диапазона 100.0 %
CRC A6CEA11B
Копирование... OK

Ошибок не произошло

Конец отчёта

foobar2000 1.3.7 / Dynamic Range Meter 1.1.1
log date: 2015-09-01 23:00:06

Analyzed: / Love Lifted Me

DR Peak RMS Duration Track

DR13 -1.16 dB -17.60 dB 3:48 01-Love Lifted Me
DR15 -1.35 dB -19.70 dB 4:17 02-Abraham, Martin And John \ Precious Memories
DR15 -0.58 dB -17.38 dB 3:07 03-I Would Like To See You Again
DR15 -0.94 dB -17.47 dB 2:46 04-Runaway Girl
DR14 -0.11 dB -17.31 dB 3:29 05-The World Needs A Melody
DR14 -1.47 dB -18.43 dB 2:54 06-You Gotta Be Tired
DR13 -0.56 dB -16.12 dB 2:28 07-Home-Made Love
DR14 -0.11 dB -17.18 dB 4:02 08-While The Feeling's Good
DR14 -1.00 dB -17.94 dB 2:43 09-Heavenly Sunshine
DR13 -2.49 dB -18.56 dB 3:38 10-There's An Old Man In Our Town

Number of tracks: 10
Official DR value: DR14

Samplerate: 44100 Hz
Channels: 2
Bits per sample: 16
Bitrate: 801 kbps
Codec: FLAC

foobar2000 1.3.7 / Dynamic Range Meter 1.1.1
log date: 2015-09-01 23:00:28

Analyzed: / Kenny Rogers (aka Lucille)

DR Peak RMS Duration Track

DR12 -0.51 dB -16.21 dB 2:53 01-Laura (What's He Got That I Ain't Got)
DR12 -0.20 dB -15.34 dB 3:29 02-I Wasn't Man Enough
DR12 -1.17 dB -16.11 dB 2:48 03-Mother Country Music
DR12 -1.54 dB -16.99 dB 3:30 04-Why Don't We Go Somewhere And Love
DR12 -1.52 dB -17.38 dB 3:35 05-Green Green Grass Of Home
DR12 -1.45 dB -15.53 dB 3:05 06-Til I Get It Right
DR13 -0.11 dB -16.64 dB 3:42 07-Lucille
DR11 -0.94 dB -14.87 dB 3:11 08-The Son Of Hickory Holler's Tramp
DR11 -1.74 dB -14.84 dB 3:55 09-Lay Down Beside Me
DR12 -0.70 dB -15.87 dB 3:00 10-Puttin' In Overtime At Home
DR11 -0.45 dB -14.69 dB 2:43 11-While I Play The Fiddle

Number of tracks: 11
Official DR value: DR12

Samplerate: 44100 Hz
Channels: 2
Bits per sample: 16
Bitrate: 798 kbps
Codec: FLAC

All thanks to - modest_suetsky & his friend

password: BlondStyle


DOWNLOAD LINKS
(Premium Recommended)


Links are Interchangeable - No Password - Single Extraction

Direct Download

Tags: Rogers, Lifted, Rogers, Reissue

Kenny Rogers - Love Lifted Me (1976) & Kenny Rogers (1976) [2CD] (2009, Reissue) Download via Hotfile Rapidshare Fileserve Megaupload & FileSonic, Kenny Rogers - Love Lifted Me (1976) & Kenny Rogers (1976) [2CD] (2009, Reissue) free torrent downloads included crack, serial, keygen.


Attention!Information

Members of Guest cannot leave comments.