Van Morrison - Moondance (1970)

Download Now

Van Morrison - Moondance (1970)

Van Morrison - Moondance (1970)
Rock | 1cd | EAC Rip | Flac + Cue + Log | covers
Warner, 7599-27326-2 | rel: 1990 | 240+340 Mb

The yang to Astral Weeks' yin, the brilliant Moondance is every bit as much a classic as its predecessor; Van Morrison's first commercially successful solo effort, it retains the previous album's deeply spiritual thrust but transcends its bleak, cathartic intensity to instead explore themes of renewal and redemption. Light, soulful, and jazzy, Moondance opens with the sweetly nostalgic "And It Stoned Me," the song's pastoral imagery establishing the dominant lyrical motif recurring throughout the album -- virtually every track exults in natural wonder, whether it's the nocturnal magic celebrated by the title cut or the unlimited promise offered in "Brand New Day."
At the heart of the record is "Caravan," an incantatory ode to the power of radio; equally stirring is the majestic "Into the Mystic," a song of such elemental beauty and grace as to stand as arguably the quintessential Morrison moment. ~Allmusic

Track listing
01. And It Stoned Me (4:35)
02. Moondance (4:37)
03. Crazy Love (2:37)
04. Caravan (5:03)
05. Into the Mystic (3:30)
06. Come Running (2:32)
07. These Dreams of You (3:54)
08. Brand New Day (5:11)
09. Everyone (3:35)
10. Glad Tidings (3:42)
~ (39:15)

Personnel
- Judy Clay - backing vocals (tracks 3 and 8)
- Emily Houston - backing vocals (tracks 3 and 8)
- John Klingberg - bass
- Jef Labes - organ, piano, clavinet
- Gary Mallaber - drums, vibraphone
- Guy Masson - conga
- Van Morrison - vocals, guitar, rhythm guitar, tambourine, harmonica, producer
- John Platania - guitar, rhythm guitar
- Jack Schroer - alto and soprano saxophones
- Collin Tilton - flute, tenor saxophone
- Jackie Verdell - backing vocals (tracks 3 and 8)

Exact Audio Copy V1.0 beta 3 from 29. August 2011

EAC extraction logfile from 18. February 2014, 0:32

Van Morrison / Moondance

Used drive : PLEXTOR DVDR PX-891SA Adapter: 0 ID: 2

Read mode : Secure
Utilize accurate stream : Yes
Defeat audio cache : Yes
Make use of C2 pointers : No

Read offset correction

: 6
Overread into Lead-In and Lead-Out : No
Fill up missing offset samples with silence : Yes
Delete leading and trailing silent blocks : No
Null samples used in CRC calculations : Yes
Used interface
: Installed external ASPI interface

Used output format : User Defined Encoder
Selected bitrate : 320 kBit/s
Quality : High
Add ID3 tag : No
Command line compressor : C:\Program Files\Exact Audio Copy 1.0\Flac\flac.exe
Additional command line options : -V -8 -T "Genre=%genre%" -T "Artist=%artist%" -T "Title=%title%" -T "Album=%albumtitle%" -T "Date=%year%" -T "Tracknumber=%tracknr%" -T "Comment=%comment%" %source%

TOC of the extracted CD Track | Start | Length | Start sector | End sector
--1 | 0:00.00 | 4:34.53 | 0 | 20602 2 | 4:34.53 | 4:36.57 | 20603 | 41359 3 | 9:11.35 | 2:36.58 | 41360 | 53117 4 | 11:48.18 | 5:02.40 | 53118 | 75807 5 | 16:50.58 | 3:30.27 | 75808 | 91584 6 | 20:21.10 | 2:32.30 | 91585 | 103014 7 | 22:53.40 | 3:53.70 | 103015 | 120559 8 | 26:47.35 | 5:10.58 | 120560 | 143867 9 | 31:58.18 | 3:34.40 | 143868 | 159957
10 | 35:32.58 | 3:42.32 | 159958 | 176639

Range status and errors

Selected range Filename K:\Lossless Temp\Van Morrison\Van Morrison - Moondance - 1970 (1990 Warner Bros. 7599-27326-2)\Van Morrison - Moondance.wav Peak level 87.5 %
Extraction speed 5.9 X
Range quality 99.9 %
Test CRC E37E89FC
Copy CRC E37E89FC
Copy OK

No errors occurred


AccurateRip summary

Track 1 accurately ripped (confidence 71) [CC71B5EE] (AR v2)
Track 2 accurately ripped (confidence 71) [AEFDEA10] (AR v2)
Track 3 accurately ripped (confidence 71) [60CFC52D] (AR v2)
Track 4 accurately ripped (confidence 70) [D4D112D0] (AR v2)
Track 5 accurately ripped (confidence 69) [03228209] (AR v2)
Track 6 accurately ripped (confidence 71) [1832A4C6] (AR v2)
Track 7 accurately ripped (confidence 71) [AB376D1E] (AR v2)
Track 8 accurately ripped (confidence 70) [C1553EFE] (AR v2)
Track 9 accurately ripped (confidence 70) [D0118CC7] (AR v2)
Track 10 accurately ripped (confidence 69) [6EA23CB4] (AR v2)

All tracks accurately ripped

End of status report

==== Log checksum 028068EE647D5616D65440625CAA4BD281ACAED0C7F324B0FB0F4557511FE7AC ====

[CUETools log; Date: 2015.09.02. 13:41:00; Version: 2.1.5]
[CTDB TOCID: 6kqbQ6xXrnmWacbpTjR0Hw.mWZ8-] found.
Track | CTDB Status
1 | (241/243) Accurately ripped
2 | (240/243) Accurately ripped
3 | (241/243) Accurately ripped
4 | (241/243) Accurately ripped
5 | (240/243) Accurately ripped
6 | (241/243) Accurately ripped
7 | (241/243) Accurately ripped
8 | (241/243) Accurately ripped
9 | (241/243) Accurately ripped
10 | (239/243) Accurately ripped
[AccurateRip ID: 000f0d93-0077774e-6809330a] found.
Track [ CRC | V2 ] Status
01 [f15efc25|cc71b5ee] (085+094/606) Accurately ripped
02 [6fb58c45|aefdea10] (082+094/606) Accurately ripped
03 [95dfb808|60cfc52d] (084+094/605) Accurately ripped
04 [d89b26f2|d4d112d0] (084+092/601) Accurately ripped
05 [fa01c5fa|03228209] (083+091/603) Accurately ripped
06 [7670e171|1832a4c6] (083+094/604) Accurately ripped
07 [a8282102|ab376d1e] (083+093/603) Accurately ripped
08 [841e259b|c1553efe] (083+092/599) Accurately ripped
09 6b68779|d0118cc7 (084+093/604) Accurately ripped
10 [15792933|6ea23cb4] (082+092/603) Accurately ripped
Offsetted by 664:
01 [db9ed285] (200/606) Accurately ripped
02 [eb45b17d] (200/606) Accurately ripped
03 [3feb4af0] (200/605) Accurately ripped
04 [32680002] (200/601) Accurately ripped
05 [4993862a] (200/603) Accurately ripped
06 [779af701] (200/604) Accurately ripped
07 [4ae5d8d2] (200/603) Accurately ripped
08 [c7b6572b] (200/599) Accurately ripped
09 [ea555361] (200/604) Accurately ripped
10 [e865386b] (200/603) Accurately ripped
Offsetted by 721:
01 [cc425fe9] (019/606) Accurately ripped
02 [06d7d9b2] (021/606) Accurately ripped
03 [86ce36c7] (020/605) Accurately ripped
04 [75dfc0e8] (020/601) Accurately ripped
05 [90cad4bc] (020/603) Accurately ripped
06 [5b8f8a97] (020/604) Accurately ripped
07 [e5349740] (020/603) Accurately ripped
08 [60055541] (020/599) Accurately ripped
09 [e01d2c98] (019/604) Accurately ripped
10 [2d7eb6ed] (018/603) Accurately ripped
Offsetted by 568:
01 [e804a105] (000/606) No match (V2 was not tested)
02 [a1e3be9d] (000/606) No match
03 [e37a9550] (000/605) No match
04 34d77c2 (000/601) No match
05 [8e43d96a] (000/603) No match
06 [995d5cc1] (000/604) No match
07 [3989a592] (000/603) No match
08 [c7314ceb] (000/599) No match
09 [fb8b79c1] (000/604) No match
10 [ed47c1ab] (002/603) Accurately ripped
Offsetted by 634:
01 [4f7ea30d] (000/606) No match (V2 was not tested)
02 4571597 (000/606) No match (V2 was not tested)
03 [4308122e] (000/605) No match (V2 was not tested)
04 [7aafb56e] (000/601) No match (V2 was not tested)
05 [3f0aa02e] (000/603) No match (V2 was not tested)
06 [f227b6cd] (000/604) No match (V2 was not tested)
07 [657908ce] (000/603) No match (V2 was not tested)
08 [778cc3f7] (000/599) No match (V2 was not tested)
09 [efb63f5f] (000/604) No match (V2 was not tested)
10 [f9ec034f] (000/603) No match (V2 was not tested)
Offsetted by 658:
01 [8c652f6d] (002/606) Accurately ripped
02 [46af924f] (002/606) Accurately ripped
03 [da243f96] (002/605) Accurately ripped
04 [da76577e] (000/601) No match (V2 was not tested)
05 [adde8b5e] (002/603) Accurately ripped
06 [29b71d5d] (000/604) No match (V2 was not tested)
07 [e9d0159e] (002/603) Accurately ripped
08 7ae0687 (000/599) No match (V2 was not tested)
09 [eb68b5c7] (002/604) Accurately ripped
10 8b360ff (002/603) Accurately ripped
Offsetted by 670:
01 [2ad8759d] (000/606) No match
02 [8fdbd0ab] (002/606) Accurately ripped
03 [a5b2564a] (000/605) No match
04 [8a59a886] (000/601) No match
05 [e54880f6] (000/603) No match
06 [c57ed0a5] (000/604) No match
07 [abfb9c06] (000/603) No match
08 [d7bea7cf] (000/599) No match
09 [e941f0fb] (000/604) No match
10 [18170fd7] (000/603) No match

Track Peak [ CRC32 ] [W/O NULL] [ LOG ]
-- 87,5 [E37E89FC] [EF3D03EC] CRC32
01 76,8 [D17CCC4E] [27294C58]
02 70,4 [0214CA7E] [34D658C2]
03 60,0 [2964043F] [6F404DA3]
04 81,2 [9055E1E2] [2B8D2F79]
05 83,5 [4C33B45F] [2F7DAD04]
06 80,0 [1CF6BFB3] [C3F02764]
07 87,5 [3790F3FD] [F45569CA]
08 87,4 [0DDED1EC] [813126A1]
09 75,0 [9FEAF08E] [0D0A7C64]
10 70,1 [74D686AF] [E2397214]

Thx to Swamp Fox

password: asd
Download:
Buy Premium To Support Me & Get Resumable Support & Max Speed


Links are Interchangeable - No Password

Direct Download

Tags: Morrison, Moondance

Van Morrison - Moondance (1970) Download via Hotfile Rapidshare Fileserve Megaupload & FileSonic, Van Morrison - Moondance (1970) free torrent downloads included crack, serial, keygen.


Attention!Information

Members of Guest cannot leave comments.