Lita Ford - Lita (1988)

Download Now

Lita Ford - Lita (1988)

Lita Ford - Lita (1988)
EAC Rip | FLAC (Img) + Cue + Log ~ 282 Mb | MP3 CBR320 ~ 98 Mb
Scans (JPG, 600 dpi) ~ 82 Mb | RAR 5% Recovery
Hard Rock, Glam Metal | RCA/Dreamland Records #6397-2-R

"Lita is the third solo studio album by the American rock singer and guitarist Lita Ford. It was originally released in February 1988 and it was her first for RCA Records and her first published with the supervision of new manager Sharon Osbourne. The album features the song "Close My Eyes Forever", a duet with Ozzy Osbourne, and the hit "Kiss Me Deadly", which was named the 76th best hard rock song of all time by VH1. Musicians Don Nossov and Myron Grombacher, who were best known for being the rhythm section of the successful American singer Pat Benatar, joined Ford for the recording sessions and for the promotional tour. The album peaked at No. 29 on the US Billboard 200 chart and the singles "Close My Eyes Forever" and "Kiss Me Deadly" peaked at numbers eight and twelve respectively on the Billboard Hot 100 chart. The song is also featured on the video game Karaoke Revolution Presents: American Idol Encore."

Wiki | Discogs | All Music
***************

Lita Ford - Lita (1988)

Track List:

01. Back To The Cave [04:04]
02. Can't Catch Me [04:01]
03. Blueberry [03:51]
04. Kiss Me Deadly [04:02]
05. Falling In And Out Of Love [05:11]
06. Fatal Passion [04:45]
07. Under The Gun [04:53]
08. Broken Dreams [05:13]
09. Close My Eyes Forever (With Ozzy Osbourne) [04:44]

Exact Audio Copy V1.0 beta 3 from 29. August 2011

EAC extraction logfile from 31. January 2015, 14:04

Lita Ford / Lita

Used drive : HL-DT-STDVDRAM GH22NS40 Adapter: 4 ID: 0

Read mode : Secure
Utilize accurate stream : Yes
Defeat audio cache : Yes
Make use of C2 pointers : No

Read offset correction

: 667
Overread into Lead-In and Lead-Out : No
Fill up missing offset samples with silence : Yes
Delete leading and trailing silent blocks : No
Null samples used in CRC calculations : Yes
Used interface
: Native Win32 interface for Win NT & 2000

Used output format : User Defined Encoder
Selected bitrate : 1024 kBit/s
Quality : High
Add ID3 tag : No
Command line compressor : C:\Program Files\FLAC\flac.exe
Additional command line options : -V -8 -T "Date=%year%" -T "Genre=%genre%" %source%

TOC of the extracted CD Track | Start | Length | Start sector | End sector
--1 | 0:00.00 | 4:03.07 | 0 | 18231 2 | 4:03.07 | 4:00.13 | 18232 | 36244 3 | 8:03.20 | 3:50.35 | 36245 | 53529 4 | 11:53.55 | 4:01.60 | 53530 | 71664 5 | 15:55.40 | 5:10.27 | 71665 | 94941 6 | 21:05.67 | 4:44.20 | 94942 | 116261 7 | 25:50.12 | 4:52.43 | 116262 | 138204 8 | 30:42.55 | 5:12.62 | 138205 | 161666 9 | 35:55.42 | 4:43.10 | 161667 | 182901

Range status and errors

Selected range Filename I:\Rips\Lita Ford - Lita.wav Peak level 100.0 %
Extraction speed 1.6 X
Range quality 100.0 %
Test CRC 40CC21A9
Copy CRC 40CC21A9
Copy OK

No errors occurred


AccurateRip summary

Track 1 accurately ripped (confidence 7) 2640F45 (AR v1)
Track 2 accurately ripped (confidence 7) [3C2F7862] (AR v1)
Track 3 accurately ripped (confidence 7) [9D97413E] (AR v1)
Track 4 accurately ripped (confidence 7) [FD43A7B6] (AR v1)
Track 5 accurately ripped (confidence 7) 16A6889 (AR v1)
Track 6 accurately ripped (confidence 7) [97604429] (AR v1)
Track 7 accurately ripped (confidence 7) [6A73F053] (AR v1)
Track 8 accurately ripped (confidence 6) [451B3046] (AR v1)
Track 9 accurately ripped (confidence 7) [31C121B5] (AR v1)

All tracks accurately ripped

End of status report

==== Log checksum F31D7FDB0FDABD361ECC85223710E1C79E622BFB4A46FAC43E516E023D863369 ====

foobar2000 1.2.6 / Dynamic Range Meter 1.1.1
log date: 2015-09-02 15:14:15

Analyzed: Lita Ford / Lita

DR Peak RMS Duration Track

DR12 -0.12 dB -13.51 dB 4:03 01-Back To The Cave
DR11 -1.17 dB -13.74 dB 4:00 02-Can't Catch Me
DR12 -0.63 dB -14.13 dB 3:50 03-Blueberry
DR12 -0.45 dB -14.57 dB 4:02 04-Kiss Me Deadly
DR13 0.00 dB -14.64 dB 5:10 05-Falling In And Out Of Love
DR11 -1.37 dB -13.99 dB 4:44 06-Fatal Passion
DR11 -1.58 dB -15.84 dB 4:53 07-Under The Gun
DR11 -2.04 dB -14.51 dB 5:13 08-Broken Dreams
DR11 -0.78 dB -17.17 dB 4:43 09-Close My Eyes Forever (With Ozzy Osbourne)

Number of tracks: 9
Official DR value: DR12

Samplerate: 44100 Hz
Channels: 2
Bits per sample: 16
Bitrate: 923 kbps
Codec: FLAC

[CUETools log; Date: 02.09.2015 15:14:13; Version: 2.1.5]
[CTDB TOCID: wwOrhoaBfi9eWdydEkBzsDTlCnU-] found.
Track | CTDB Status
1 | (57/61) Accurately ripped
2 | (58/61) Accurately ripped
3 | (59/61) Accurately ripped
4 | (60/61) Accurately ripped
5 | (59/61) Accurately ripped
6 | (60/61) Accurately ripped
7 | (59/61) Accurately ripped
8 | (60/61) Accurately ripped
9 | (58/61) Accurately ripped
[AccurateRip ID: 000d54b2-00630aaa-7d098609] found.
Track [ CRC | V2 ] Status
01 2640f45|5d090e92 (007+000/153) Accurately ripped
02 [3c2f7862|951b14a8] (007+000/152) Accurately ripped
03 [9d97413e|a538e274] (007+002/156) Accurately ripped
04 [fd43a7b6|cd0e9e49] (007+002/161) Accurately ripped
05 16a6889|28d5e281 (007+002/154) Accurately ripped
06 [97604429|ed7e3ad9] (007+002/155) Accurately ripped
07 [6a73f053|e29b9fca] (007+002/153) Accurately ripped
08 [451b3046|e492653e] (006+002/151) Accurately ripped
09 [31c121b5|ff5ed8fc] (007+002/155) Accurately ripped
Offsetted by -86:
01 [80b793e8] (003/153) Accurately ripped
02 [d60e6990] (003/152) Accurately ripped
03 [a738dad3] (003/156) Accurately ripped
04 37bd053 (003/161) Accurately ripped
05 [7b81acaf] (003/154) Accurately ripped
06 [38c69420] (003/155) Accurately ripped
07 [c537355f] (003/153) Accurately ripped
08 [2263f90a] (003/151) Accurately ripped
09 [1053bb0f] (003/155) Accurately ripped
Offsetted by 183:
01 1fd5c1f (057/153) Accurately ripped
02 [689910b2] (056/152) Accurately ripped
03 [d9d40f37] (056/156) Accurately ripped
04 [5627be59] (060/161) Accurately ripped
05 [8d08f4c9] (056/154) Accurately ripped
06 1487e6c (056/155) Accurately ripped
07 [7deb0db5] (054/153) Accurately ripped
08 [8a029e6c] (054/151) Accurately ripped
09 [274f65a4] (056/155) Accurately ripped
Offsetted by 920:
01 [247ba564] (022/153) Accurately ripped
02 [79a9ecb5] (022/152) Accurately ripped
03 [1ff27358] (023/156) Accurately ripped
04 [dd74bc05] (023/161) Accurately ripped
05 [05a8b6cd] (023/154) Accurately ripped
06 [572f0c69] (022/155) Accurately ripped
07 [a53531a6] (022/153) Accurately ripped
08 [6503c611] (022/151) Accurately ripped
09 [78e30900] (024/155) Accurately ripped
Offsetted by 1548:
01 ae6ccc5 (006/153) Accurately ripped
02 [26140023] (006/152) Accurately ripped
03 [7ee7e5cd] (006/156) Accurately ripped
04 [34b922e5] (006/161) Accurately ripped
05 [409be655] (006/154) Accurately ripped
06 [30ac29f0] (006/155) Accurately ripped
07 [5798d0fe] (006/153) Accurately ripped
08 [8de2b20b] (006/151) Accurately ripped
09 [45465b8e] (006/155) Accurately ripped
Offsetted by -1465:
01 [09c202c3] (000/153) No match (V2 was not tested)
02 [1a6b8da2] (000/152) No match (V2 was not tested)
03 [d848641b] (000/156) No match (V2 was not tested)
04 b108483 (000/161) No match (V2 was not tested)
05 [1a9f13b2] (000/154) No match (V2 was not tested)
06 [3021013d] (000/155) No match (V2 was not tested)
07 [40650505] (000/153) No match (V2 was not tested)
08 [2f74f74c] (000/151) No match (V2 was not tested)
09 [a8d7b786] (000/155) No match (V2 was not tested)
Offsetted by -750:
01 [96cd3a9e] (000/153) No match (V2 was not tested)
02 [84704abf] (000/152) No match (V2 was not tested)
03 [6212e92a] (000/156) No match (V2 was not tested)
04 [4fc20057] (000/161) No match (V2 was not tested)
05 [101b7332] (000/154) No match (V2 was not tested)
06 [6139a573] (000/155) No match (V2 was not tested)
07 [23092f02] (000/153) No match (V2 was not tested)
08 [01290bb6] (000/151) No match (V2 was not tested)
09 [834e08c7] (000/155) No match (V2 was not tested)

Track Peak [ CRC32 ] [W/O NULL] [ LOG ]
-- 100,0 [40CC21A9] [9F97FA7E] CRC32
01 98,6 [94779EF6] BCC33D6
02 87,4 [4A66F049] [5ED94AE5]
03 93,0 [05EA31C1] [7E553A33]
04 94,9 [31D3A447] [E3612963]
05 100,0 [E4854E1B] [A04B7183]
06 85,4 [C835339C] [99D4E9A1]
07 83,3 [A3E7045F] [96503CAD]
08 79,0 [1899DD9F] [173CAE6A]
09 91,4 [21CEB133] [9004BC88]

Lita Ford - Lita (1988)

Lita Ford - Lita (1988)

All thanks go to powermet


DOWNLOAD LINKS
Buy Premium From My Links To Get Resumable Support & Max Speed & To Support Me


Links are Interchangeable - No Password - Single Extraction

Direct Download

Lita Ford - Lita (1988) Download via Hotfile Rapidshare Fileserve Megaupload & FileSonic, Lita Ford - Lita (1988) free torrent downloads included crack, serial, keygen.


Attention!Information

Members of Guest cannot leave comments.