The Who - The Who Sell Out (1967) [Polydor P28P 25084, Japan]

Download Now

The Who - The Who Sell Out (1967) [Polydor P28P 25084, Japan]

The Who - The Who Sell Out (1967)
EAC | Flac(Image) + Cue + Log & MP3 CBR 320Kbps
1988 | Polydor, P28P 25084 | ~ 269 or 113 Mb | Scans Included
Classic Rock / Psychedelic Rock

"Pete Townshend originally planned The Who Sell Out as a concept album of sorts that would simultaneously mock and pay tribute to pirate radio stations, complete with fake jingles and commercials linking the tracks..."


Tracklist:

01. "Armenia City In The Sky"
02. "Heinz Baked Beans"
03. "Mary Anne With The Shaky Hand"
04. "Odorono"
05. "Tattoo"
06. "Our Love Was"
07. "I Can See For Miles"
08. "Can't Reach You"
09. "Medac"
10. "Relax"
11. "Silas Stingy"
12. "Sunrise"
13. "Rael (1 and 2)"

Exact Audio Copy V1.0 beta 1 from 15. November 2010

EAC extraction logfile from 31. August 2015, 21:02

The Who / The Who Sell Out

Used drive : MATSHITADVD-RAM UJ8A0AS Adapter: 0 ID: 1

Read mode : Secure
Utilize accurate stream : Yes
Defeat audio cache : Yes
Make use of C2 pointers : No

Read offset correction

: 102
Overread into Lead-In and Lead-Out : No
Fill up missing offset samples with silence : Yes
Delete leading and trailing silent blocks : No
Null samples used in CRC calculations : Yes
Used interface
: Native Win32 interface for Win NT & 2000

Used output format : Internal WAV Routines
Sample format : 44.100 Hz; 16 Bit; Stereo

TOC of the extracted CD Track | Start | Length | Start sector | End sector
--1 | 0:00.00 | 3:43.00 | 0 | 16724 2 | 3:43.00 | 1:09.65 | 16725 | 21964 3 | 4:52.65 | 2:09.52 | 21965 | 31691 4 | 7:02.42 | 2:44.38 | 31692 | 44029 5 | 9:47.05 | 3:04.25 | 44030 | 57854 6 | 12:51.30 | 3:19.10 | 57855 | 72789 7 | 16:10.40 | 4:28.20 | 72790 | 92909 8 | 20:38.60 | 3:32.00 | 92910 | 108809 9 | 24:10.60 | 0:57.60 | 108810 | 113144
10 | 25:08.45 | 2:39.30 | 113145 | 125099
11 | 27:48.00 | 3:05.00 | 125100 | 138974
12 | 30:53.00 | 3:05.52 | 138975 | 152901
13 | 33:58.52 | 5:43.28 | 152902 | 178654

Range status and errors

Selected range Filename C:\Users\Alex\Music\Alexharvey\The Who - The Who Sell Out.wav Peak level 95.5 %
Extraction speed 0.1 X
Range quality 100.0 %
Test CRC D0A1FDBC
Copy CRC D0A1FDBC
Copy OK

No errors occurred


AccurateRip summary

Track 1 accurately ripped (confidence 4) [F3997B47]
Track 2 accurately ripped (confidence 4) [CD6E1E4E]
Track 3 accurately ripped (confidence 4) [0E3A66FD]
Track 4 accurately ripped (confidence 4) [88B389EC]
Track 5 accurately ripped (confidence 4) [14F7ADF0]
Track 6 accurately ripped (confidence 4) [65B83138]
Track 7 accurately ripped (confidence 4) [AFBAC060]
Track 8 accurately ripped (confidence 4) [5A7BA8F3]
Track 9 accurately ripped (confidence 4) [60AD7234]
Track 10 accurately ripped (confidence 4) 79429CF
Track 11 accurately ripped (confidence 4) [8D60F809]
Track 12 accurately ripped (confidence 4) [E77B205C]
Track 13 accurately ripped (confidence 4) [363400BE]

All tracks accurately ripped

End of status report

==== Log checksum 2610486CF0244B37E835C9298ECE1AE9B6C4D1EE7C07CCEA978844A827519404 ====

foobar2000 1.2.9 / Dynamic Range Meter 1.1.1
log date: 2015-09-01 15:06:03

Analyzed: The Who / The Who Sell Out

DR Peak RMS Duration Track

DR10 -2.95 dB -16.70 dB 3:43 01-Armenia City In The Sky
DR11 -1.28 dB -17.19 dB 1:10 02-Heinz Baked Beans
DR10 -1.88 dB -15.58 dB 2:10 03-Mary Anne With The Shaky Hand
DR12 -2.07 dB -16.65 dB 2:45 04-Odorono
DR10 -3.28 dB -16.08 dB 3:04 05-Tattoo
DR10 -0.68 dB -15.66 dB 3:19 06-Our Love Was
DR10 -1.49 dB -13.97 dB 4:28 07-I Can See For Miles
DR11 -0.40 dB -14.57 dB 3:32 08-Can't Reach You
DR11 -0.40 dB -15.87 dB 0:58 09-Medac
DR9 -1.47 dB -14.31 dB 2:39 10-Relax
DR10 -1.10 dB -15.38 dB 3:05 11-Silas Stingy
DR11 -4.53 dB -19.44 dB 3:06 12-Sunrise
DR10 -0.42 dB -14.65 dB 5:43 13-Rael (1 and 2)

Number of tracks: 13
Official DR value: DR11

Samplerate: 44100 Hz
Channels: 2
Bits per sample: 16
Bitrate: 854 kbps
Codec: FLAC

[CUETools log; Date: 01.09.2015 14:54:40; Version: 2.1.4]
[CTDB TOCID: WfzuN_RBiW94fG7cF.srnILXG9c-] found.
Track | CTDB Status
1 | (1/1) Accurately ripped
2 | (1/1) Accurately ripped
3 | (1/1) Accurately ripped
4 | (1/1) Accurately ripped
5 | (1/1) Accurately ripped
6 | (1/1) Accurately ripped
7 | (1/1) Accurately ripped
8 | (1/1) Accurately ripped
9 | (1/1) Accurately ripped
10 | (1/1) Accurately ripped
11 | (1/1) Accurately ripped
12 | (1/1) Accurately ripped
13 | (1/1) Accurately ripped
[AccurateRip ID: 0011a1e2-00b25ea8-9e094e0d] found.
Track [ CRC | V2 ] Status
01 [f3997b47|54f19b5d] (0+4/4) Accurately ripped
02 [cd6e1e4e|18007716] (0+4/4) Accurately ripped
03 [0e3a66fd|760102b5] (0+4/4) Accurately ripped
04 [88b389ec|9b26b6e9] (0+4/4) Accurately ripped
05 [14f7adf0|0ecaa464] (0+4/4) Accurately ripped
06 [65b83138|75e5f123] (0+4/4) Accurately ripped
07 [afbac060|51c1e81e] (0+4/4) Accurately ripped
08 [5a7ba8f3|b077d0dd] (0+4/4) Accurately ripped
09 [60ad7234|53e21ae7] (0+4/4) Accurately ripped
10 79429cf|df3eeffb (0+4/4) Accurately ripped
11 [8d60f809|a1585de5] (0+4/4) Accurately ripped
12 [e77b205c|3b441a47] (0+4/4) Accurately ripped
13 [363400be|41dc5b42] (0+4/4) Accurately ripped

Track Peak [ CRC32 ] [W/O NULL] [ LOG ]
-- 95,5 [D0A1FDBC] [09E4A243] CRC32
01 71,1 [E5D7CDD5] [0C293DF1]
02 86,2 [2E700C50] [E5166AD5]
03 80,5 [0DB7D94B] [C7478A7B]
04 78,7 [FBE292BB] [9DB23667]
05 68,5 [177174AF] [477D802D]
06 92,4 [0D93A1A3] [A30B136B]
07 84,2 [A651FE6C] [787D486B]
08 95,5 [39F6FB60] [21213146]
09 95,5 [478A10BD] [F5BFF8AE]
10 84,4 [468F3B10] [FDD570D9]
11 88,1 776703A [CB0F1A78]
12 59,3 [647DE21B] [E6760900]
13 95,3 [F71C28FB] [F53EC476]

The Who - The Who Sell Out (1967) [Polydor P28P 25084, Japan]

DOWNLOAD
(Premium Recommended)


All above links are interchangable. No password

Direct Download

Tags: Polydor

The Who - The Who Sell Out (1967) [Polydor P28P 25084, Japan] Download via Hotfile Rapidshare Fileserve Megaupload & FileSonic, The Who - The Who Sell Out (1967) [Polydor P28P 25084, Japan] free torrent downloads included crack, serial, keygen.


Attention!Information

Members of Guest cannot leave comments.