If - If 4 (1972) (2007 Remaster) [Re-Up]

Download Now

If - If 4 (1972) (2007 Remaster) [Re-Up]

If - If 4 (1972) (2007 Remaster)
Jazz Rock | EAC Rip | Flac + Cue + Log | Covers
Repertoire, REPUK 1098 | 340Mb

If 4 is the fourth album released by the English jazz rock band If. It was first issued in 1972 and the last album to feature the original recording line-up.
After their more commercial If 3 this mainly live album If 4 follows the more jazz orientated meanderings of their earlier albums, but with a more heavy guitar sound, typified by the first track the amazing ten minute live instrumental "Sector 17", a real album highlight.
As the band were essentially more at home playing this type of music live this makes sense, but still sounds great in the studio. "The Light Still Shines", another live track, features a nice keyboard solo and strong bass, but starts to sound like a hundred other jazz rock bands, as is the next track "You in Your Small Corner". Opening side 2 is a great song "Waterfall", a folkish rock song with guitar, sax, tom-toms and Tull-style flute but firmly back in very enjoyable If territory again - it is this varied style of music and choice of instruments that make them special. "Throw Myself to the Wind" swings in, jam-like, not an album highlight but warms up with a guitar/sax exchange (not sure whether the applause is canned or real in places). The last track, strangely titled live seven-minute "Svenska Soma", a great blues instrumental featuring some good organ and sax solos, backed by some solid bass and drums. Progarchives:Another worthy addition to any jazz-rock collection, not If's best but still goes further and is more innovative than most.

Track listing
01. Sector 17 (10:45)
02. The Light Still Shines (5:03)
03. You In Your Small Corner (3:40)
04. Waterfall (5:36)
05. Throw Myself To The Wind (4:42)
06. Svenska Soma (7:15)
~ (37:01)

Personnel
- Dennis Elliott - drums
- J.W. Hodgkinson - vocals, percussion
- John Mealing - keyboards
- Dick Morrissey - saxophones, flute
- Dave Quincy - saxophones
- Jim Richardson - bass
- Terry Smith - guitar

Exact Audio Copy V0.99 prebeta 5 from 4. May 2009

EAC extraction logfile from 26. November 2010, 14:29

If / If4

Used drive : ASUS DRW-20B1LT Adapter: 5 ID: 0

Read mode : Secure
Utilize accurate stream : Yes
Defeat audio cache : Yes
Make use of C2 pointers : No

Read offset correction

: 6
Overread into Lead-In and Lead-Out : No
Fill up missing offset samples with silence : Yes
Delete leading and trailing silent blocks : No
Null samples used in CRC calculations : Yes
Used interface
: Native Win32 interface for Win NT & 2000

Used output format : Internal WAV Routines
Sample format : 44.100 Hz; 16 Bit; Stereo

TOC of the extracted CD Track | Start | Length | Start sector | End sector
--1 | 0:00.00 | 10:45.13 | 0 | 48387 2 | 10:45.13 | 5:02.39 | 48388 | 71076 3 | 15:47.52 | 3:39.56 | 71077 | 87557 4 | 19:27.33 | 5:36.00 | 87558 | 112757 5 | 25:03.33 | 4:42.31 | 112758 | 133938 6 | 29:45.64 | 7:14.61 | 133939 | 166549

Range status and errors

Selected range Filename C:\rip\If - If4.wav Peak level 99.8 %
Range quality 100.0 %
Test CRC 5140A715
Copy CRC 5140A715
Copy OK

No errors occurred


AccurateRip summary

Track 1 accurately ripped (confidence 2) [74946C11]
Track 2 accurately ripped (confidence 2) [469D8F12]
Track 3 accurately ripped (confidence 2) [5F21B3CF]
Track 4 accurately ripped (confidence 2) [7C63D5E4]
Track 5 accurately ripped (confidence 2) [FC5C69AA]
Track 6 accurately ripped (confidence 2) [3EF299EC]

All tracks accurately ripped

End of status report

[CUETools log; Date: 2015.09.02. 12:20:04; Version: 2.1.5]
[CTDB TOCID: aU_.ouH.PpKFpJxNGiEQJDVvWqE-] found.
Track | CTDB Status
1 | (8/8) Accurately ripped
2 | (8/8) Accurately ripped
3 | (8/8) Accurately ripped
4 | (8/8) Accurately ripped
5 | (8/8) Accurately ripped
6 | (7/8) Accurately ripped
[AccurateRip ID: 000976ee-0030baaa-5c08ac06] found.
Track [ CRC | V2 ] Status
01 [74946c11|05df73bf] (3+6/9) Accurately ripped
02 [469d8f12|e85e881e] (3+6/9) Accurately ripped
03 [5f21b3cf|c74f06d9] (3+6/9) Accurately ripped
04 [7c63d5e4|b1b5d0ce] (3+6/9) Accurately ripped
05 [fc5c69aa|559fb7a1] (3+6/9) Accurately ripped
06 [3ef299ec|f403dbe1] (3+6/9) Accurately ripped

Track Peak [ CRC32 ] [W/O NULL] [ LOG ]
-- 99,8 [5140A715] [71EBB680] CRC32
01 98,8 [AFF62953] [74E873DE]
02 99,8 [A6772473] [6E589863]
03 98,8 [AD6C73BB] [85DA2647]
04 98,8 [A93E68C2] [2C4B3CB9]
05 98,8 [EFFCFA0A] [6060BCB3]
06 98,8 4CB536A [F3ECB832]

password: asd
DOWNLOAD:
Buy Premium From My Links To Get Resumable Support & Max Speed & To Support Me


Links are Interchangeable - No Password

Direct Download

Tags: Remaster

If - If 4 (1972) (2007 Remaster) [Re-Up] Download via Hotfile Rapidshare Fileserve Megaupload & FileSonic, If - If 4 (1972) (2007 Remaster) [Re-Up] free torrent downloads included crack, serial, keygen.


Attention!Information

Members of Guest cannot leave comments.