Quincy Jones - The Hot Rock (Soundtrack) (1972)

Download Now

Quincy Jones - The Hot Rock (Soundtrack) (1972)

Quincy Jones - The Hot Rock (Soundtrack) (1972)
EAC Rip | FLAC with CUE and log | scans | 173 mb
MP3 CBR 320kbps | RAR | 81 mb
Genre: soundtrack, jazz, soul, R&B, incidental

The Hot Rock is the 1972 soundtrack album by Quincy Jones, released on Prophesy. Some of the musicians on the album include Grady Tate, Carol Kaye, Mike Melvoin, Clare Fischer, Gerry Mulligan, Clark Terry, and Victor Feldman among many. This is taken from an unofficial CD for the album ripped from vinyl, as it has not been digitally released. A few of these songs have been sampled in the past by hip-hop producers. British fans will know this film under the name How To Steal A Diamond In Four Uneasy Lessons, released on Atlantic.
1. Listen To The Melody (3:44)
2. Main Title (3:14)
3. Talking Drums (2:08)
4. Seldom Seen Sam (2:30)
5. Parole Party (1:59)
6. When You Believe (2:53)
7. Hot Rock Theme (2:45)
8. Miasmo (2:13)
9. Sahara Stone (3:00)
10. Slam City (1:56)
11. Listen To The Melody/Dixie Tag (4:38)
12. End Title (3:10)

Exact Audio Copy V1.1 from 23. June 2015

EAC extraction logfile from 1. September 2015, 21:44

Quincy Jones / The Hot Rock (Soundtrack)

Used drive : TEAC DVD-ROM DV-28SW Adapter: 1 ID: 0

Read mode : Secure
Utilize accurate stream : Yes
Defeat audio cache : Yes
Make use of C2 pointers : No

Read offset correction

: 6
Overread into Lead-In and Lead-Out : No
Fill up missing offset samples with silence : Yes
Delete leading and trailing silent blocks : No
Null samples used in CRC calculations : Yes
Used interface
: Native Win32 interface for Win NT & 2000
Gap handling
: Appended to previous track

Used output format : Internal WAV Routines
Sample format : 44.100 Hz; 16 Bit; Stereo

TOC of the extracted CD Track | Start | Length | Start sector | End sector
--1 | 0:00.00 | 3:44.06 | 0 | 16805 2 | 3:44.06 | 3:17.74 | 16806 | 31654 3 | 7:02.05 | 2:12.70 | 31655 | 41624 4 | 9:15.00 | 2:33.20 | 41625 | 53119 5 | 11:48.20 | 2:03.06 | 53120 | 62350 6 | 13:51.26 | 2:57.43 | 62351 | 75668 7 | 16:48.69 | 2:48.08 | 75669 | 88276 8 | 19:37.02 | 2:18.09 | 88277 | 98635 9 | 21:55.11 | 3:06.22 | 98636 | 112607
10 | 25:01.33 | 1:59.63 | 112608 | 121595
11 | 27:01.21 | 4:42.65 | 121596 | 142810
12 | 31:44.11 | 3:14.07 | 142811 | 157367

Track 1 Filename C:\My Documents\My FLAC\Quincy Jones - The Hot Rock (Soundtrack) (1972) [FLAC]\01 - Listen To The Melody.wav Pre-gap length 0:00:02.00 Peak level 100.0 %
Extraction speed 2.3 X
Track quality 99.9 %
Test CRC 2BEF1994
Copy CRC 2BEF1994
Track not present in AccurateRip database
Copy OK

Track 2 Filename C:\My Documents\My FLAC\Quincy Jones - The Hot Rock (Soundtrack) (1972) [FLAC]\02 - Main Title.wav Peak level 80.6 %
Extraction speed 2.9 X
Track quality 100.0 %
Test CRC F6C045D8
Copy CRC F6C045D8
Track not present in AccurateRip database
Copy OK

Track 3 Filename C:\My Documents\My FLAC\Quincy Jones - The Hot Rock (Soundtrack) (1972) [FLAC]\03 - Talking Drums.wav Peak level 69.3 %
Extraction speed 2.9 X
Track quality 100.0 %
Test CRC 3234F10B
Copy CRC 3234F10B
Track not present in AccurateRip database
Copy OK

Track 4 Filename C:\My Documents\My FLAC\Quincy Jones - The Hot Rock (Soundtrack) (1972) [FLAC]\04 - Seldom Seen Sam.wav Peak level 69.0 %
Extraction speed 3.0 X
Track quality 100.0 %
Test CRC E72FB2A2
Copy CRC E72FB2A2
Track not present in AccurateRip database
Copy OK

Track 5 Filename C:\My Documents\My FLAC\Quincy Jones - The Hot Rock (Soundtrack) (1972) [FLAC]\05 - Parole Party.wav Peak level 74.0 %
Extraction speed 3.0 X
Track quality 100.0 %
Test CRC 511F9431
Copy CRC 511F9431
Track not present in AccurateRip database
Copy OK

Track 6 Filename C:\My Documents\My FLAC\Quincy Jones - The Hot Rock (Soundtrack) (1972) [FLAC]\06 - When You Believe.wav Peak level 82.2 %
Extraction speed 3.4 X
Track quality 100.0 %
Test CRC A695C6D1
Copy CRC A695C6D1
Track not present in AccurateRip database
Copy OK

Track 7 Filename C:\My Documents\My FLAC\Quincy Jones - The Hot Rock (Soundtrack) (1972) [FLAC]\07 - Hot Rock Theme.wav Peak level 76.6 %
Extraction speed 3.4 X
Track quality 100.0 %
Test CRC 914DD445
Copy CRC 914DD445
Track not present in AccurateRip database
Copy OK

Track 8 Filename C:\My Documents\My FLAC\Quincy Jones - The Hot Rock (Soundtrack) (1972) [FLAC]\08 - Miasmo.wav Peak level 76.6 %
Extraction speed 2.6 X
Track quality 99.9 %
Test CRC 2E43A6A1
Copy CRC 2E43A6A1
Track not present in AccurateRip database
Copy OK

Track 9 Filename C:\My Documents\My FLAC\Quincy Jones - The Hot Rock (Soundtrack) (1972) [FLAC]\09 - Sahara Stone.wav Peak level 73.0 %
Extraction speed 3.7 X
Track quality 100.0 %
Test CRC 1D7DF7DF
Copy CRC 1D7DF7DF
Track not present in AccurateRip database
Copy OK

Track 10 Filename C:\My Documents\My FLAC\Quincy Jones - The Hot Rock (Soundtrack) (1972) [FLAC]\10 - Slam City.wav Peak level 60.6 %
Extraction speed 2.6 X
Track quality 99.9 %
Test CRC EF9972BC
Copy CRC EF9972BC
Track not present in AccurateRip database
Copy OK

Track 11 Filename C:\My Documents\My FLAC\Quincy Jones - The Hot Rock (Soundtrack) (1972) [FLAC]\11 - Listen To The Melody,Dixie Tag.wav Peak level 84.4 %
Extraction speed 3.6 X
Track quality 99.9 %
Test CRC 702520C7
Copy CRC 702520C7
Track not present in AccurateRip database
Copy OK

Track 12 Filename C:\My Documents\My FLAC\Quincy Jones - The Hot Rock (Soundtrack) (1972) [FLAC]\12 - End Title.wav Peak level 85.4 %
Extraction speed 3.9 X
Track quality 100.0 %
Test CRC FB5A32DB
Copy CRC FB5A32DB
Track not present in AccurateRip database
Copy OK

None of the tracks are present in the AccurateRip database

No errors occurred

End of status report

- CUETools DB Plugin V2.1.6

[CTDB TOCID: ND2MrYrdMTYa93wb8obDpzJBq9M-] disk not present in database
Submit result: ND2MrYrdMTYa93wb8obDpzJBq9M- has been uploaded
DOWNLOAD:
Buy Premium To Support Me & Get Resumable Support & Max Speed


Links are Interchangeable - No Password

Direct Download

Tags: Quincy, Soundtrack

Quincy Jones - The Hot Rock (Soundtrack) (1972) Download via Hotfile Rapidshare Fileserve Megaupload & FileSonic, Quincy Jones - The Hot Rock (Soundtrack) (1972) free torrent downloads included crack, serial, keygen.


Attention!Information

Members of Guest cannot leave comments.