Talking Heads - Popular Favorites 1976-1992: Sand in the Vaseline (1992) 2CD [Re-Up]

Download Now

Talking Heads - Popular Favorites 1976-1992: Sand in the Vaseline (1992) 2CD [Re-Up]

Talking Heads - Popular Favorites 1976-1992: Sand in the Vaseline (1992) 2CD
EAC | FLAC | Tracks (Cue&Log) ~ 946 Mb (incl 5%) | Mp3 (CBR320) ~ 336 Mb (incl 5%) | Complete Scans
Genre: New Wave, Post-Punk, Dance-Rock, Alternative Rock | Label: EMI | # 0777 7 80466 2 2 | Time: 02:20:04

"Released four years after the Talking Heads called it a day with 1988's Naked, Popular Favorites provides a thorough overview of one of the most important American bands of the '80s. From tightly wound early efforts such as "Psycho Killer" and "Don't Worry About the Government" to the seriously funky likes of "I Zimbra" and "Burning Down the House," David Byrne, Jerry Harrison, Tina Weymouth, and Chris Franz grew as musicians as they stretched the original concepts of the unit to the breaking point. Over the course of two discs and 32 selections, the anthology chronicles the Heads' development from Bowery art punks (albeit of the most civil stripe) to unlikely arena stars. A smattering of unreleased tracks and notes from the original quartet nicely flesh out the retrospective."

"Featuring material from every Talking Heads album except the live The Name of This Band Is Talking Heads, Sand in the Vaseline is a terrific double-disc retrospective of the band's long and varied career. Featuring all of their hit singles and trademark songs ("Psycho Killer," "Take Me to the River," "Burning Down the House," "And She Was," "Once in a Lifetime," "Swamp," "Memories Can't Wait," "Crosseyed and Painless," "Road to Nowhere," "(Nothing But) Flowers," "Life During Wartime"), the set also includes five previously unreleased tracks.

Review by Stephen Thomas Erlewine, Allmusic.com (AMG Album Pick)
"



Tracklist:

CD1:

01. Sugar On My Tongue
02. I Want To Live
03. Love -> Building On Fire
04. I Wish You Wouldn't Say That
05. Psycho Killer
06. Don't Worry About The Government
07. No Compassion
08. Warning Sign
09. The Big Country
10. Take Me To The River
11. Heaven
12. Memories Can't Wait
13. I Zimbra
14. Once In A Lifetime
15. Crosseyed And Painless
16. Burning Down The House
17. Swamp
18. This Must Be The Place (Naive Melody)

CD2:

01. Life During Wartime (Live)
02. Girlfriend Is Better (Live)
03. And She Was
04. Stay Up Late
05. Road To Nowhere
06. Wild Wild Life
07. Love For Sale
08. City Of Dreams
09. Mr. Jones
10. Blind
11. (Nothing But) Flowers
12. Sax And Violins
13. Gangster Of Love
14. Lifetime Piling Up
15. Popsicle


Exact Audio Copy V0.99 prebeta 5 from 4. May 2009

Отчёт EAC об извлечении, выполненном 24. октября 2011, 16:39

Talking Heads / Sand in the Vaseline CD1

Дисковод: Optiarc DVD RW AD-5240S Adapter: 3 ID: 1

Режим чтения : Достоверность
Использование точного потока : Да
Отключение кэша аудио : Да
Использование указателей C2 : Нет

Коррекция смещения при чтении : 48
Способность читать области Lead-in и Lead-out : Нет
Заполнение пропущенных сэмплов тишиной : Да
Удаление блоков с тишиной в начале и конце : Нет
При вычислениях CRC использовались нулевые сэмплы : Да
Интерфейс : Встроенный Win32-интерфейс для Win NT/2000
Обработка зазоров
: Добавлено к предыдущему треку

Выходной формат : Пользовательский кодировщик
Выбранный битрейт : 768 kBit/s
Качество : Высокий
Добавление ID3-тэга : Нет
Утилита сжатия : L:\программы\Exact Audio Copy\FLAC\FLAC.EXE
Дополнительные параметры : -6 -V -T "ARTIST=%a" -T "TITLE=%t" -T "ALBUM=%g" -T "DATE=%y" -T "TRACKNUMBER=%n" -T "GENRE=%m" -T "COMMENT=%e" %s -o %d

TOC извлечённого CD Трек | Старт | Длительность | Начальный сектор | Конечный сектор

1 | 0:00.33 | 2:37.27 | 33 | 11834
2 | 2:37.60 | 3:23.20 | 11835 | 27079
3 | 6:01.05 | 2:57.50 | 27080 | 40404
4 | 8:58.55 | 2:36.38 | 40405 | 52142
5 | 11:35.18 | 4:20.10 | 52143 | 71652
6 | 15:55.28 | 3:00.60 | 71653 | 85212
7 | 18:56.13 | 4:50.25 | 85213 | 106987
8 | 23:46.38 | 3:54.72 | 106988 | 124609
9 | 27:41.35 | 5:30.65 | 124610 | 149424
10 | 33:12.25 | 5:02.53 | 149425 | 172127
11 | 38:15.03 | 4:02.42 | 172128 | 190319
12 | 42:17.45 | 3:31.50 | 190320 | 206194
13 | 45:49.20 | 3:08.15 | 206195 | 220309
14 | 48:57.35 | 4:19.40 | 220310 | 239774
15 | 53:17.00 | 4:45.53 | 239775 | 261202
16 | 58:02.53 | 4:01.12 | 261203 | 279289
17 | 62:03.65 | 5:13.53 | 279290 | 302817
18 | 67:17.43 | 4:56.40 | 302818 | 325057

Трек 1 Имя файла L:\Новая папка\01. Talking Heads - Sugar On My Tongue.wav Длина предзазора 0:00:02.33 Пиковый уровень 96.8 %
Качество трека 100.0 %
CRC теста CEBEC4C3
CRC копии CEBEC4C3
Точное извлечение (достоверность 54) [5583440E]
Копирование... OK

Трек 2 Имя файла L:\Новая папка\02. Talking Heads - I Want To Live.wav Длина предзазора 0:00:00.02 Пиковый уровень 97.3 %
Качество трека 100.0 %
CRC теста 6877E485
CRC копии 6877E485
Точное извлечение (достоверность 55) [CB10337F]
Копирование... OK

Трек 3 Имя файла L:\Новая папка\03. Talking Heads - Love -] Building On Fire.wav Длина предзазора 0:00:00.02 Пиковый уровень 97.2 %
Качество трека 99.9 %
CRC теста 5DAAF87A
CRC копии 5DAAF87A
Точное извлечение (достоверность 55) B4A09C2
Копирование... OK

Трек 4 Имя файла L:\Новая папка\04. Talking Heads - I Wish You Wouldn't Say That.wav Длина предзазора 0:00:00.02 Пиковый уровень 97.3 %
Качество трека 100.0 %
CRC теста 7A24B801
CRC копии 7A24B801
Точное извлечение (достоверность 54) [5E462E33]
Копирование... OK

Трек 5 Имя файла L:\Новая папка\05. Talking Heads - Psycho Killer.wav Длина предзазора 0:00:00.03 Пиковый уровень 97.3 %
Качество трека 100.0 %
CRC теста 999F264D
CRC копии 999F264D
Точное извлечение (достоверность 52) [846528DD]
Копирование... OK

Трек 6 Имя файла L:\Новая папка\06. Talking Heads - Don't Worry About The Government.wav Длина предзазора 0:00:00.03 Пиковый уровень 97.3 %
Качество трека 100.0 %
CRC теста DDF4A97F
CRC копии DDF4A97F
Точное извлечение (достоверность 53) [583DDBFB]
Копирование... OK

Трек 7 Имя файла L:\Новая папка\07. Talking Heads - No Compassion.wav Длина предзазора 0:00:00.03 Пиковый уровень 97.3 %
Качество трека 100.0 %
CRC теста 734B81DA
CRC копии 734B81DA
Точное извлечение (достоверность 51) 80FBE93
Копирование... OK

Трек 8 Имя файла L:\Новая папка\08. Talking Heads - Warning Sign.wav Длина предзазора 0:00:00.50 Пиковый уровень 97.3 %
Качество трека 100.0 %
CRC теста E7CE7B8F
CRC копии E7CE7B8F
Точное извлечение (достоверность 52) [3467BE4F]
Копирование... OK

Трек 9 Имя файла L:\Новая папка\09. Talking Heads - The Big Country.wav Длина предзазора 0:00:00.20 Пиковый уровень 97.3 %
Качество трека 100.0 %
CRC теста 1A53EC5C
CRC копии 1A53EC5C
Точное извлечение (достоверность 52) [4172B856]
Копирование... OK

Трек 10 Имя файла L:\Новая папка\10. Talking Heads - Take Me To The River.wav Длина предзазора 0:00:00.02 Пиковый уровень 97.3 %
Качество трека 100.0 %
CRC теста CA8F211D
CRC копии CA8F211D
Точное извлечение (достоверность 52) [3710512E]
Копирование... OK

Трек 11 Имя файла L:\Новая папка\11. Talking Heads - Heaven.wav Длина предзазора 0:00:01.05 Пиковый уровень 97.3 %
Качество трека 100.0 %
CRC теста B1097DD7
CRC копии B1097DD7
Точное извлечение (достоверность 51) [562CE438]
Копирование... OK

Трек 12 Имя файла L:\Новая папка\12. Talking Heads - Memories Can't Wait.wav Длина предзазора 0:00:00.32 Пиковый уровень 97.3 %
Качество трека 100.0 %
CRC теста 2F068D00
CRC копии 2F068D00
Точное извлечение (достоверность 50) [DDA5B4DF]
Копирование... OK

Трек 13 Имя файла L:\Новая папка\13. Talking Heads - I Zimbra.wav Длина предзазора 0:00:00.22 Пиковый уровень 97.3 %
Качество трека 100.0 %
CRC теста 28E4FEB9
CRC копии 28E4FEB9
Точное извлечение (достоверность 53) [3D9C847A]
Копирование... OK

Трек 14 Имя файла L:\Новая папка\14. Talking Heads - Once In A Lifetime.wav Длина предзазора 0:00:00.02 Пиковый уровень 97.3 %
Качество трека 100.0 %
CRC теста D4D1A580
CRC копии D4D1A580
Точное извлечение (достоверность 53) [E825D158]
Копирование... OK

Трек 15 Имя файла L:\Новая папка\15. Talking Heads - Crosseyed And Painless.wav Длина предзазора 0:00:00.02 Пиковый уровень 97.3 %
Качество трека 100.0 %
CRC теста E69B6997
CRC копии E69B6997
Точное извлечение (достоверность 53) [FA931DAD]
Копирование... OK

Трек 16 Имя файла L:\Новая папка\16. Talking Heads - Burning Down The House.wav Длина предзазора 0:00:00.03 Пиковый уровень 97.3 %
Качество трека 100.0 %
CRC теста 258B4776
CRC копии 258B4776
Точное извлечение (достоверность 52) [3428BF7E]
Копирование... OK

Трек 17 Имя файла L:\Новая папка\17. Talking Heads - Swamp.wav Длина предзазора 0:00:00.02 Пиковый уровень 97.3 %
Качество трека 100.0 %
CRC теста 33FB6617
CRC копии 33FB6617
Точное извлечение (достоверность 51) [0731E417]
Копирование... OK

Трек 18 Имя файла L:\Новая папка\18. Talking Heads - This Must Be The Place (Naive Melody).wav Длина предзазора 0:00:00.03 Пиковый уровень 97.3 %
Качество трека 99.9 %
CRC теста D549AEFC
CRC копии D549AEFC
Точное извлечение (достоверность 48) [47121132]
Копирование... OK

Все треки извлечены точно

Ошибок не произошло

Конец отчёта

Exact Audio Copy V0.99 prebeta 5 from 4. May 2009

Отчёт EAC об извлечении, выполненном 24. октября 2011, 15:16

Talking Heads / Sand in the Vaseline CD2ч2

Дисковод: Optiarc DVD RW AD-5240S Adapter: 3 ID: 1

Режим чтения : Достоверность
Использование точного потока : Да
Отключение кэша аудио : Да
Использование указателей C2 : Нет

Коррекция смещения при чтении : 48
Способность читать области Lead-in и Lead-out : Нет
Заполнение пропущенных сэмплов тишиной : Да
Удаление блоков с тишиной в начале и конце : Нет
При вычислениях CRC использовались нулевые сэмплы : Да
Интерфейс : Встроенный Win32-интерфейс для Win NT/2000
Обработка зазоров
: Добавлено к предыдущему треку

Выходной формат : Пользовательский кодировщик
Выбранный битрейт : 768 kBit/s
Качество : Высокий
Добавление ID3-тэга : Нет
Утилита сжатия : L:\программы\Exact Audio Copy\FLAC\FLAC.EXE
Дополнительные параметры : -6 -V -T "ARTIST=%a" -T "TITLE=%t" -T "ALBUM=%g" -T "DATE=%y" -T "TRACKNUMBER=%n" -T "GENRE=%m" -T "COMMENT=%e" %s -o %d

TOC извлечённого CD Трек | Старт | Длительность | Начальный сектор | Конечный сектор

1 | 0:00.33 | 5:05.05 | 33 | 22912
2 | 5:05.38 | 3:36.65 | 22913 | 39177
3 | 8:42.28 | 3:39.15 | 39178 | 55617
4 | 12:21.43 | 3:53.10 | 55618 | 73102
5 | 16:14.53 | 4:20.27 | 73103 | 92629
6 | 20:35.05 | 3:40.23 | 92630 | 109152
7 | 24:15.28 | 4:32.25 | 109153 | 129577
8 | 28:47.53 | 5:08.10 | 129578 | 152687
9 | 33:55.63 | 4:20.45 | 152688 | 172232
10 | 38:16.33 | 5:00.02 | 172233 | 194734
11 | 43:16.35 | 5:34.13 | 194735 | 219797
12 | 48:50.48 | 5:18.32 | 219798 | 243679
13 | 54:09.05 | 4:29.05 | 243680 | 263859
14 | 58:38.10 | 3:53.25 | 263860 | 281359
15 | 62:31.35 | 5:19.58 | 281360 | 305342

Трек 1 Имя файла L:\Новая папка\01. Talking Heads - Life During Wartime (Live).wav Длина предзазора 0:00:02.33 Пиковый уровень 97.3 %
Качество трека 100.0 %
CRC теста 427A5A20
CRC копии 427A5A20
Точное извлечение (достоверность 41) [A8F34037]
Копирование... OK

Трек 2 Имя файла L:\Новая папка\02. Talking Heads - Girlfriend Is Better (Live).wav Длина предзазора 0:00:00.45 Пиковый уровень 97.3 %
Качество трека 100.0 %
CRC теста 84E70722
CRC копии 84E70722
Точное извлечение (достоверность 42) 69A04B2
Копирование... OK

Трек 3 Имя файла L:\Новая папка\03. Talking Heads - And She Was.wav Длина предзазора 0:00:00.48 Пиковый уровень 97.3 %
Качество трека 100.0 %
CRC теста 86594FD8
CRC копии 86594FD8
Точное извлечение (достоверность 42) [E051896B]
Копирование... OK

Трек 4 Имя файла L:\Новая папка\04. Talking Heads - Stay Up Late.wav Длина предзазора 0:00:00.63 Пиковый уровень 97.3 %
Качество трека 100.0 %
CRC теста C1995572
CRC копии C1995572
Точное извлечение (достоверность 42) [05B451FA]
Копирование... OK

Трек 5 Имя файла L:\Новая папка\05. Talking Heads - Road To Nowhere.wav Длина предзазора 0:00:00.03 Пиковый уровень 97.3 %
Качество трека 100.0 %
CRC теста C11E060E
CRC копии C11E060E
Точное извлечение (достоверность 41) [FB473F3D]
Копирование... OK

Трек 6 Имя файла L:\Новая папка\06. Talking Heads - Wild Wild Life.wav Длина предзазора 0:00:00.19 Пиковый уровень 97.3 %
Качество трека 100.0 %
CRC теста BE1A7D28
CRC копии BE1A7D28
Точное извлечение (достоверность 43) [14DE7F0E]
Копирование... OK

Трек 7 Имя файла L:\Новая папка\07. Talking Heads - Love For Sale.wav Длина предзазора 0:00:00.03 Пиковый уровень 97.3 %
Качество трека 100.0 %
CRC теста 3BF9353B
CRC копии 3BF9353B
Точное извлечение (достоверность 43) [466ED2A3]
Копирование... OK

Трек 8 Имя файла L:\Новая папка\08. Talking Heads - City Of Dreams.wav Длина предзазора 0:00:00.70 Пиковый уровень 97.3 %
Качество трека 99.9 %
CRC теста 51A1AE33
CRC копии 51A1AE33
Точное извлечение (достоверность 42) [78A6461B]
Копирование... OK

Трек 9 Имя файла L:\Новая папка\09. Talking Heads - Mr. Jones.wav Длина предзазора 0:00:01.08 Пиковый уровень 97.3 %
Качество трека 100.0 %
CRC теста 0F1F9B2E
CRC копии 0F1F9B2E
Точное извлечение (достоверность 39) [A3AF2908]
Копирование... OK

Трек 10 Имя файла L:\Новая папка\10. Talking Heads - Blind.wav Длина предзазора 0:00:00.03 Пиковый уровень 97.3 %
Качество трека 100.0 %
CRC теста E8B0D262
CRC копии E8B0D262
Точное извлечение (достоверность 41) [370C1DAA]
Копирование... OK

Трек 11 Имя файла L:\Новая папка\11. Talking Heads - (Nothing But) Flowers.wav Длина предзазора 0:00:00.02 Пиковый уровень 97.3 %
Качество трека 99.9 %
CRC теста AEB9D9CE
CRC копии AEB9D9CE
Точность не определена (достоверность 41) [284F3E2B], AccurateRip вернул [8FC524CC]
Копирование... OK

Трек 12 Имя файла L:\Новая папка\12. Talking Heads - Sax And Violins.wav Длина предзазора 0:00:01.25 Пиковый уровень 97.3 %
Качество трека 99.9 %
CRC теста 22906D57
CRC копии 22906D57
Точное извлечение (достоверность 41) [C95FAC30]
Копирование... OK

Трек 13 Имя файла L:\Новая папка\13. Talking Heads - Gangster Of Love.wav Длина предзазора 0:00:00.02 Пиковый уровень 84.5 %
Качество трека 100.0 %
CRC теста 9725E786
CRC копии 9725E786
Точное извлечение (достоверность 41) [F85FA6DB]
Копирование... OK

Трек 14 Имя файла L:\Новая папка\14. Talking Heads - Lifetime Piling Up.wav Длина предзазора 0:00:00.02 Пиковый уровень 93.1 %
Качество трека 100.0 %
CRC теста 7D570E99
CRC копии 7D570E99
Точное извлечение (достоверность 41) [8FE8F280]
Копирование... OK

Трек 15 Имя файла L:\Новая папка\15. Talking Heads - Popsicle.wav Длина предзазора 0:00:00.02 Пиковый уровень 100.0 %
Качество трека 99.9 %
CRC теста 65F3D7B0
CRC копии 65F3D7B0
Точное извлечение (достоверность 39) [DBCBEA9F]
Копирование... OK

14 трек(и) скопированы точно
1 трек(и) не удалось проверить на точность

Некоторые треки не прошли проверку на точность

Ошибок не произошло

Конец отчёта

Talking Heads - Popular Favorites 1976-1992: Sand in the Vaseline (1992) 2CD [Re-Up]

Talking Heads - Popular Favorites 1976-1992: Sand in the Vaseline (1992) 2CD [Re-Up]

All thanks to original releaser - pretenders
Password: designol

DOWNLOAD
(Premium Recommended)

Rapidgator.net:
http://rapidgator.net/file/902635f0cf582bfe4e717aabf5e1b930/0tmkn.THdsSand.FLAC.CD1.rar.html
http://rapidgator.net/file/7ee6de71f8c4011df06e424c7bcdd5a1/0tmkn.THdsSand.FLAC.CD2.rar.html
http://rapidgator.net/file/f2142bef425cc064f4d9a47a28eaaf1a/0tmkn.THdsSand.MP3.CD1.rar.html
http://rapidgator.net/file/8c620cdb7d9fbdcafea67f2faf909bb4/0tmkn.THdsSand.MP3.CD2.rar.html
http://rapidgator.net/file/744b31f351a1c853636dccc219df8471/0tmkn.THdsSand.SCANS.rar.html

Uploaded.net:
http://uploaded.net/file/snzgv2fv/0tmkn.THdsSand.FLAC.CD1.rar
http://uploaded.net/file/8js7v0ms/0tmkn.THdsSand.FLAC.CD2.rar
http://uploaded.net/file/nt09w1zv/0tmkn.THdsSand.MP3.CD1.rar
http://uploaded.net/file/dqiuphgc/0tmkn.THdsSand.MP3.CD2.rar
http://uploaded.net/file/jxafe3kb/0tmkn.THdsSand.SCANS.rar

nitroflare_com:
http://nitroflare.com/view/46BA74F037DDF6B/0tmkn.THdsSand.FLAC.CD1.rar
http://nitroflare.com/view/75AC701B1F3B108/0tmkn.THdsSand.FLAC.CD2.rar
http://nitroflare.com/view/694DEF58CB08619/0tmkn.THdsSand.MP3.CD1.rar
http://nitroflare.com/view/0B239D3B46CCCB8/0tmkn.THdsSand.MP3.CD2.rar
http://nitroflare.com/view/C447BCEEFA5D9EA/0tmkn.THdsSand.SCANS.rar

Uploadable.ch:
http://www.uploadable.ch/file/AVMugNp7RESE/0tmkn.THdsSand.FLAC.CD1.rar
http://www.uploadable.ch/file/RnbRW8YgtAgX/0tmkn.THdsSand.FLAC.CD2.rar
http://www.uploadable.ch/file/QhwUemsV4Pp9/0tmkn.THdsSand.MP3.CD1.rar
http://www.uploadable.ch/file/AaZrrzsdXGKA/0tmkn.THdsSand.MP3.CD2.rar
http://www.uploadable.ch/file/VV5yKjrCHefD/0tmkn.THdsSand.SCANS.rar

All above links are interchangable. No password

Direct Download

Tags: Talking, Popular, Favorites, Vaseline

Talking Heads - Popular Favorites 1976-1992: Sand in the Vaseline (1992) 2CD [Re-Up] Download via Hotfile Rapidshare Fileserve Megaupload & FileSonic, Talking Heads - Popular Favorites 1976-1992: Sand in the Vaseline (1992) 2CD [Re-Up] free torrent downloads included crack, serial, keygen.


Attention!Information

Members of Guest cannot leave comments.