Chris James & Patrick Rynn - Barrelhouse Stomp (2013)

Download Now

Chris James & Patrick Rynn - Barrelhouse Stomp (2013)

Chris James & Patrick Rynn - Barrelhouse Stomp (2013)
EAC Rip | FLAC (Img) + Cue + Log ~ 429 Mb | MP3 CBR320 ~ 160 Mb
Scans Included (JPG, 600 dpi) | RAR 5% Recovery
Chicago Blues | Earwing Music #Earwing CD 4968

"Chris James and Patrick Rynn are at the forefront of today's traditional Blues movement. They've been playing together since 1990, proudly dedicating their musical collaboration to the high-energy sound of real, unadulterated Chicago Blues. They lead their own widely acclaimed band, and have toured the world playing behind some of the greatest Blues legends in the field..."

Official Website | All Music
***************

Chris James & Patrick Rynn - Barrelhouse Stomp (2013)

Track List:

01. Goodbye, Later For You [04:31]
02. Just Another Kick In The Teeth [03:51]
03. I Feel So Good [03:49]
04. Messin' With White Lighnin' [05:12]
05. Before It's Too Late [04:24]
06. A Fact Is A Fact [04:13]
07. It Always Can Be Worse [03:19]
08. I'm Gonna Stop Foolin' Myself [05:15]
09. Vicksburg Blues [05:35]
10. Bobby's Rock [04:46]
11. Take It Easy (A Tribute To Pinetop Perkins) [03:48]
12. Last Call Woogie [04:51]

Exact Audio Copy V1.0 beta 3 from 29. August 2011

Отчёт EAC об извлечении, выполненном 23. февраля 2014, 13:59

Chris James and Patrick Rynn / Barrelhouse Stomp

Дисковод: PLEXTOR DVDR PX-880SA Adapter: 1 ID: 0

Режим чтения : Достоверность
Использование точного потока : Да
Отключение кэша аудио : Да
Использование указателей C2 : Нет

Коррекция смещения при чтении : 6
Способность читать области Lead-in и Lead-out : Нет
Заполнение пропущенных сэмплов тишиной : Да
Удаление блоков с тишиной в начале и конце : Нет
При вычислениях CRC использовались нулевые сэмплы : Да
Интерфейс : Установленный внешний ASPI-интерфейс

Выходной формат : Пользовательский кодировщик
Выбранный битрейт : 1024 kBit/s
Качество : Высокий
Добавление ID3-тега : Нет
Утилита сжатия : C:\Program Files\Exact Audio Copy\FLAC\FLAC.EXE
Дополнительные параметры : -10 -V -T "ARTIST=%artist%" -T "ALBUM=%albumtitle%" -T "DATE=%year%" -T "GENRE=%genre%" -T "COMMENT=ripped by izia1956" %source%

TOC извлечённого CD Трек | Старт | Длительность | Начальный сектор | Конечный сектор

1 | 0:00.00 | 4:30.03 | 0 | 20252
2 | 4:30.03 | 3:50.54 | 20253 | 37556
3 | 8:20.57 | 3:48.28 | 37557 | 54684
4 | 12:09.10 | 5:11.27 | 54685 | 78036
5 | 17:20.37 | 4:23.58 | 78037 | 97819
6 | 21:44.20 | 4:12.04 | 97820 | 116723
7 | 25:56.24 | 3:18.68 | 116724 | 131641
8 | 29:15.17 | 5:14.09 | 131642 | 155200
9 | 34:29.26 | 5:34.22 | 155201 | 180272
10 | 40:03.48 | 4:45.34 | 180273 | 201681
11 | 44:49.07 | 3:47.49 | 201682 | 218755
12 | 48:36.56 | 4:50.25 | 218756 | 240530

Характеристики диапазона извлечения и сообщения об ошибках

Выбранный диапазон Имя файла D:\BitComet\Chris James & Patrick Rynn\Chris James and Patrick Rynn - Barrelhouse Stomp.wav Пиковый уровень 100.0 %
Скорость извлечения 2.7 X
Качество диапазона 100.0 %
CRC теста 64DD02E7
CRC копии 64DD02E7
Копирование... OK

Ошибок не произошло


AccurateRip: сводка

Трек 1 : извлечено точно (доверие 2) [1C04242D] (AR v2)
Трек 2 : извлечено точно (доверие 2) [7CA5AB1E] (AR v2)
Трек 3 : извлечено точно (доверие 2) [DE7B5EF4] (AR v2)
Трек 4 : извлечено точно (доверие 2) [130A536A] (AR v2)
Трек 5 : извлечено точно (доверие 2) [0ACF43A7] (AR v2)
Трек 6 : извлечено точно (доверие 2) [3558FEE5] (AR v2)
Трек 7 : извлечено точно (доверие 2) [7104706C] (AR v2)
Трек 8 : извлечено точно (доверие 2) [010CCA67] (AR v2)
Трек 9 : извлечено точно (доверие 2) [E4FB875D] (AR v2)
Трек 10 : извлечено точно (доверие 2) [1D6DB500] (AR v2)
Трек 11 : извлечено точно (доверие 2) [41205A53] (AR v2)
Трек 12 : извлечено точно (доверие 2) [26CCC727] (AR v2)

Все треки извлечены точно

Конец отчёта

==== Контрольная сумма отчёта 21DCAECE436CFFAFF17E2B70C3567539581E508E41904B3C3BE04B7998F59DA2 ====

foobar2000 1.2.6 / Dynamic Range Meter 1.1.1
log date: 2015-09-03 01:10:26

Analyzed: Chris James and Patrick Rynn / Barrelhouse Stomp

DR Peak RMS Duration Track

DR10 0.00 dB -11.30 dB 4:30 01-Goodbye, Later For You
DR10 0.00 dB -11.57 dB 3:51 02-Just Another Kick In The Teeth
DR9 0.00 dB -11.04 dB 3:48 03-I Feel So Good
DR10 -0.03 dB -11.37 dB 5:11 04-Messin' With White Lighnin'
DR10 -0.10 dB -12.25 dB 4:24 05-Before It's Too Late
DR8 -0.10 dB -8.92 dB 4:12 06-A Fact Is A Fact
DR9 0.00 dB -10.38 dB 3:19 07-It Always Can Be Worse
DR10 -0.10 dB -11.57 dB 5:14 08-I'm Gonna Stop Foolin' Myself
DR9 0.00 dB -11.85 dB 5:34 09-Vicksburg Blues
DR9 -0.50 dB -10.44 dB 4:45 10-Bobby's Rock
DR10 -0.10 dB -11.79 dB 3:48 11-Take It Easy (A Tribute To Pinetop Perkins)
DR8 -0.50 dB -10.54 dB 4:50 12-Last Call Woogie

Number of tracks: 12
Official DR value: DR9

Samplerate: 44100 Hz
Channels: 2
Bits per sample: 16
Bitrate: 990 kbps
Codec: FLAC

[CUETools log; Date: 03.09.2015 1:10:02; Version: 2.1.5]
[CTDB TOCID: PQNt_wn4WBEFS9MOmEXJqrD7t0A-] found.
Track | CTDB Status
1 | (1/1) Accurately ripped
2 | (1/1) Accurately ripped
3 | (1/1) Accurately ripped
4 | (1/1) Accurately ripped
5 | (1/1) Accurately ripped
6 | (1/1) Accurately ripped
7 | (1/1) Accurately ripped
8 | (1/1) Accurately ripped
9 | (1/1) Accurately ripped
10 | (1/1) Accurately ripped
11 | (1/1) Accurately ripped
12 | (1/1) Accurately ripped
[AccurateRip ID: 001764e9-00db8ffb-920c870c] found.
Track [ CRC | V2 ] Status
01 [dff64f67|1c04242d] (0+4/4) Accurately ripped
02 [4ee991f2|7ca5ab1e] (0+4/4) Accurately ripped
03 [d4a84b14|de7b5ef4] (0+4/4) Accurately ripped
04 [857ae1e9|130a536a] (0+4/4) Accurately ripped
05 [10af32df|0acf43a7] (0+4/4) Accurately ripped
06 [6a1701e1|3558fee5] (0+4/4) Accurately ripped
07 [f1e60f1f|7104706c] (0+4/4) Accurately ripped
08 [1040e5fd|010cca67] (0+4/4) Accurately ripped
09 [43fcfd10|e4fb875d] (0+4/4) Accurately ripped
10 [4686bc01|1d6db500] (0+4/4) Accurately ripped
11 [f2c76419|41205a53] (0+4/4) Accurately ripped
12 [4c90a2d8|26ccc727] (0+4/4) Accurately ripped

Track Peak [ CRC32 ] [W/O NULL] [ LOG ]
-- 100,0 [64DD02E7] [7BD2B253] CRC32
01 100,0 [D0085CCC] [3CF2D343]
02 100,0 [C1E6E20F] [95EACDB3]
03 100,0 [A00A3272] [4CD71C0B]
04 99,6 [CCF19CC0] [5CBF644D]
05 98,8 [9136F5C2] [94E7F0C9]
06 98,8 [58A45815] [DD9F4FBB]
07 100,0 [5A71969D] [AF0FA09D]
08 98,8 [F40672B3] 6100B59
09 100,0 [53CB8C94] [91059122]
10 94,4 [432CC98B] [A4A7ABE0]
11 98,8 [3E8919EE] [37D3E164]
12 94,4 [0B7DF070] [2EFAFA75]

Chris James & Patrick Rynn - Barrelhouse Stomp (2013)

Chris James & Patrick Rynn - Barrelhouse Stomp (2013)

All thanks go to izia1956


DOWNLOAD:
Buy Premium To Support Me & Get Resumable Support & Max Speed


Links are Interchangeable - No Password

Direct Download

Tags: Patrick, Barrelhouse

Chris James & Patrick Rynn - Barrelhouse Stomp (2013) Download via Hotfile Rapidshare Fileserve Megaupload & FileSonic, Chris James & Patrick Rynn - Barrelhouse Stomp (2013) free torrent downloads included crack, serial, keygen.


Attention!Information

Members of Guest cannot leave comments.