Jah Wobble's Invaders Of The Heart - Take Me To God (1994)

Download Now

Jah Wobble's Invaders Of The Heart - Take Me To God (1994)

Jah Wobble's Invaders Of The Heart - Take Me To God (1994)
EAC | FLAC | Tracks (Cue&Log) ~ 436 Mb (incl 5%) | Mp3 (CBR320) ~ 158 Mb (incl 5%) | Scans ~ 175 Mb | Time: 01:05:59
Genre: Worldbeat, Dub, Electronic, Alternative Pop/Rock, Experimental Rock | Label: Island | # CID 8017, 524 000-2

"After he'd been a fixture of the British new wave/punk/underground/alternative scene since the late '70s, 1994's Take Me to God marked Jah Wobble's first major commercial success as a solo artist, reaching number 13 in the U.K. The use of numerous guest musicians (including Can drummer Jaki Leibezeit) gives this a feel of a rotating collective, with Wobble (who plays several instruments here in addition to the one he's most known for, bass) the constant. Quite a few singers contribute, giving this more of a song-oriented feel than some of his other work, some of the more celebrated including Gavin Friday, Dolores O'Riordan of the Cranberries, Senegalese vocalist Baaba Maal, and top world music artist Najma Akhtar. The 66-minute length of these sprawling excursions almost inevitably means the program will drag at times, according to your musical inclinations. Lyrically, too, it's so varied as to make it difficult to connect with a pronounced attitude or viewpoint, the concerns ranging from the almost indecipherably frivolous ("Yoga of the Nightclub") to the numerous references to God that pepper the song titles."

"This multitextured album incorporates world, trance and dub styles into a very cohesive and enjoyable mix. A rich array of singers from different traditions and an innovative instrumental mix ensure plenty of variety.

The first two tracks are mellow mid-tempo numbers with lovely vocal arrangements. Sung partly in Spanish by Ximena Tascon, Whisky Priests has a Latin American rhythm and great guitars. North Africa is next, with the track I'm An Algerian sung by Abel Ali Slimani and then it's Latin again with Amor and then Jamaican with some ragga style vocals by Chaka Demus on Amor Dub.

The title track is a mix of soul and Middle Eastern, whilst the buoyant The Sun Does Rise is a beautiful anthemic pop ballad. If it weren't, this song should have been a hit. When The Storm Comes is a jazzy ballad whilst I Love Everybody is a stream of consciousness poem with a spiritual message. A highlight of the album, Yoga Of The Nightclub is an atmospheric trance number with a hypnotic beat and innovative vocal arrangements.

The interesting sonic mix of Angels includes Baaba Maal on vocals and Massamba Diop on talking drum for an African ambience whilst the next track Raga takes the listener to India, with vocals by Najma Akhtar. The album concludes with Forever, a tuneful pop ballad. The impressive stylistic scope and a high proportion of melodious songs make this album a pleasurable listening experience.

Review by Peter Uys, Amazon.com
"




Tracklist:

01. God In The Beginning (03:22)
02. Becoming More Like God (03:17)
03. Whisky Priests (04:41)
04. I'm An Algerian (03:12)
05. Amor (03:14)
06. Amor Dub (02:16)
07. Take Me To God (04:41)
08. The Sun Does Rise (04:24)
09. When The Storm Comes (07:22)
10. I Love Everybody (04:13)
11. Yoga Of The Nightclub (04:41)
12. I Am The Music (01:44)
13. The Bonds Of Love (03:56)
14. Angels (04:10)
15. No Change Is Sexy (03:49)
16. Raga (03:55)
17. Forever (02:54)


Exact Audio Copy V1.0 beta 4 from 7. December 2014

EAC extraction logfile from 12. July 2015, 10:45

Jah Wobble's Invaders Of The Heart / Take Me To God

Used drive : TSSTcorpCDDVDW SH-224DB Adapter: 1 ID: 0

Read mode : Secure
Utilize accurate stream : Yes
Defeat audio cache : Yes
Make use of C2 pointers : No

Read offset correction

: 6
Overread into Lead-In and Lead-Out : No
Fill up missing offset samples with silence : Yes
Delete leading and trailing silent blocks : No
Null samples used in CRC calculations : Yes
Used interface
: Native Win32 interface for Win NT & 2000
Gap handling
: Appended to previous track

Used output format : User Defined Encoder
Selected bitrate : 896 kBit/s
Quality : High
Add ID3 tag : No
Command line compressor : C:\Program Files\Exact Audio Copy\Flac\flac.exe
Additional command line options : -6 -V -T "ARTIST=%artist%" -T "TITLE=%title%" -T "ALBUM=%albumtitle%" -T "DATE=%year%" -T "TRACKNUMBER=%tracknr%" -T "GENRE=%genre%" -T "COMMENT=%comment%" %source% -o %dest%

TOC of the extracted CD Track | Start | Length | Start sector | End sector
--1 | 0:00.33 | 3:22.35 | 33 | 15217 2 | 3:22.68 | 3:17.57 | 15218 | 30049 3 | 6:40.50 | 4:41.50 | 30050 | 51174 4 | 11:22.25 | 3:12.10 | 51175 | 65584 5 | 14:34.35 | 3:14.50 | 65585 | 80184 6 | 17:49.10 | 2:16.33 | 80185 | 90417 7 | 20:05.43 | 4:41.22 | 90418 | 111514 8 | 24:46.65 | 4:24.18 | 111515 | 131332 9 | 29:11.08 | 7:22.57 | 131333 | 164539
10 | 36:33.65 | 4:13.05 | 164540 | 183519
11 | 40:46.70 | 4:41.45 | 183520 | 204639
12 | 45:28.40 | 1:44.45 | 204640 | 212484
13 | 47:13.10 | 3:56.08 | 212485 | 230192
14 | 51:09.18 | 4:10.22 | 230193 | 248964
15 | 55:19.40 | 3:49.73 | 248965 | 266212
16 | 59:09.38 | 3:55.25 | 266213 | 283862
17 | 63:04.63 | 2:54.70 | 283863 | 296982

Track 1 Filename C:\New Folder\01 - God In The Beginning.wav Pre-gap length 0:00:02.33 Peak level 99.6 %
Extraction speed 2.0 X
Track quality 100.0 %
Test CRC AE10127E
Copy CRC AE10127E
Accurately ripped (confidence 11) [8B1FEA5E] (AR v2)
Copy OK

Track 2 Filename C:\New Folder\02 - Becoming More Like God.wav Pre-gap length 0:00:00.03 Peak level 99.3 %
Extraction speed 2.0 X
Track quality 100.0 %
Test CRC 686A060C
Copy CRC 686A060C
Accurately ripped (confidence 11) [6F8E4978] (AR v2)
Copy OK

Track 3 Filename C:\New Folder\03 - Whisky Priests.wav Pre-gap length 0:00:00.02 Peak level 100.0 %
Extraction speed 2.1 X
Track quality 100.0 %
Test CRC F6FB8DA8
Copy CRC F6FB8DA8
Accurately ripped (confidence 11) [73576D02] (AR v2)
Copy OK

Track 4 Filename C:\New Folder\04 - I'm An Algerian.wav Pre-gap length 0:00:00.02 Peak level 100.0 %
Extraction speed 2.0 X
Track quality 100.0 %
Test CRC CA3A1175
Copy CRC CA3A1175
Accurately ripped (confidence 11) [95133818] (AR v2)
Copy OK

Track 5 Filename C:\New Folder\05 - Amor.wav Pre-gap length 0:00:00.02 Peak level 100.0 %
Extraction speed 2.0 X
Track quality 100.0 %
Test CRC 03145950
Copy CRC 03145950
Accurately ripped (confidence 11) [7EB70C26] (AR v2)
Copy OK

Track 6 Filename C:\New Folder\06 - Amor Dub.wav Pre-gap length 0:00:00.02 Peak level 99.8 %
Extraction speed 1.5 X
Track quality 99.9 %
Test CRC 5E1ECEEA
Copy CRC 5E1ECEEA
Accurately ripped (confidence 11) [900431DC] (AR v2)
Copy OK

Track 7 Filename C:\New Folder\07 - Take Me To God.wav Pre-gap length 0:00:00.03 Peak level 100.0 %
Extraction speed 2.1 X
Track quality 100.0 %
Test CRC 514AC46A
Copy CRC 514AC46A
Accurately ripped (confidence 11) [F6696F9E] (AR v2)
Copy OK

Track 8 Filename C:\New Folder\08 - The Sun Does Rise.wav Pre-gap length 0:00:00.02 Peak level 99.6 %
Extraction speed 1.9 X
Track quality 99.9 %
Test CRC 25688184
Copy CRC 25688184
Accurately ripped (confidence 11) [C1A536E0] (AR v2)
Copy OK

Track 9 Filename C:\New Folder\09 - When The Storm Comes.wav Pre-gap length 0:00:00.20 Peak level 99.8 %
Extraction speed 2.2 X
Track quality 100.0 %
Test CRC AEF93CDA
Copy CRC AEF93CDA
Accurately ripped (confidence 11) [031774EB] (AR v2)
Copy OK

Track 10 Filename C:\New Folder\10 - I Love Everybody.wav Pre-gap length 0:00:00.02 Peak level 99.7 %
Extraction speed 2.1 X
Track quality 100.0 %
Test CRC 55E16F2C
Copy CRC 55E16F2C
Accurately ripped (confidence 11) [76D18190] (AR v2)
Copy OK

Track 11 Filename C:\New Folder\11 - Yoga Of The Nightclub.wav Pre-gap length 0:00:00.02 Peak level 100.0 %
Extraction speed 2.1 X
Track quality 100.0 %
Test CRC 89E73078
Copy CRC 89E73078
Accurately ripped (confidence 11) [26DEE9D4] (AR v2)
Copy OK

Track 12 Filename C:\New Folder\12 - I Am The Music.wav Pre-gap length 0:00:00.02 Peak level 99.4 %
Extraction speed 1.4 X
Track quality 99.8 %
Test CRC 9CF4E49B
Copy CRC 9CF4E49B
Accurately ripped (confidence 11) [5861B8E1] (AR v2)
Copy OK

Track 13 Filename C:\New Folder\13 - The Bonds Of Love.wav Pre-gap length 0:00:00.02 Peak level 99.4 %
Extraction speed 2.1 X
Track quality 100.0 %
Test CRC 9ED26C1B
Copy CRC 9ED26C1B
Accurately ripped (confidence 11) [0224C892] (AR v2)
Copy OK

Track 14 Filename C:\New Folder\14 - Angels.wav Pre-gap length 0:00:00.03 Peak level 100.0 %
Extraction speed 1.9 X
Track quality 99.9 %
Test CRC C19362D4
Copy CRC C19362D4
Accurately ripped (confidence 11) [42A6E604] (AR v2)
Copy OK

Track 15 Filename C:\New Folder\15 - No Change Is Sexy.wav Pre-gap length 0:00:00.02 Peak level 98.9 %
Extraction speed 2.1 X
Track quality 100.0 %
Test CRC ED012429
Copy CRC ED012429
Accurately ripped (confidence 11) [ED6697E2] (AR v2)
Copy OK

Track 16 Filename C:\New Folder\16 - Raga.wav Pre-gap length 0:00:00.03 Peak level 96.7 %
Extraction speed 2.2 X
Track quality 100.0 %
Test CRC 3BD7D8B6
Copy CRC 3BD7D8B6
Accurately ripped (confidence 11) [66B15CD8] (AR v2)
Copy OK

Track 17 Filename C:\New Folder\17 - Forever.wav Pre-gap length 0:00:00.03 Peak level 99.1 %
Extraction speed 1.7 X
Track quality 99.9 %
Test CRC 8F6AFC78
Copy CRC 8F6AFC78
Accurately ripped (confidence 11) [3C29D0A0] (AR v2)
Copy OK

All tracks accurately ripped

No errors occurred

End of status report

- CUETools DB Plugin V2.1.4

[CTDB TOCID: SvWFBdZzaH2CchR24U.9dAappqE-] found
Submit result: SvWFBdZzaH2CchR24U.9dAappqE- has been confirmed
Track | CTDB Status
1 | (7/7) Accurately ripped
2 | (7/7) Accurately ripped
3 | (7/7) Accurately ripped
4 | (7/7) Accurately ripped
5 | (7/7) Accurately ripped
6 | (7/7) Accurately ripped
7 | (7/7) Accurately ripped
8 | (7/7) Accurately ripped
9 | (7/7) Accurately ripped
10 | (7/7) Accurately ripped
11 | (7/7) Accurately ripped
12 | (7/7) Accurately ripped
13 | (7/7) Accurately ripped
14 | (7/7) Accurately ripped
15 | (7/7) Accurately ripped
16 | (7/7) Accurately ripped
17 | (7/7) Accurately ripped

==== Log checksum B1ECCE780BD5A227DC2FE82186CDFAC6F31CA9AD33E03CB8225D636E07276138 ====

foobar2000 1.2 / Dynamic Range Meter 1.1.1
log date: 2015-09-03 14:18:14

Analyzed: Jah Wobble's Invaders Of The Heart / Take Me To God

DR Peak RMS Duration Track

DR9 -0.03 dB -10.93 dB 3:22 01-God In The Beginning
DR11 -0.06 dB -13.05 dB 3:18 02-Becoming More Like God
DR10 0.00 dB -11.86 dB 4:42 03-Whisky Priests
DR12 0.00 dB -13.19 dB 3:12 04-I'm An Algerian
DR12 0.00 dB -13.10 dB 3:15 05-Amor
DR11 -0.02 dB -12.96 dB 2:16 06-Amor Dub
DR11 0.00 dB -12.66 dB 4:41 07-Take Me To God
DR12 -0.03 dB -13.51 dB 4:24 08-The Sun Does Rise
DR11 -0.01 dB -11.84 dB 7:23 09-When The Storm Comes
DR12 -0.02 dB -15.22 dB 4:13 10-I Love Everybody
DR10 0.00 dB -12.23 dB 4:42 11-Yoga Of The Nightclub
DR12 -0.05 dB -14.07 dB 1:45 12-I Am The Music
DR11 -0.04 dB -12.34 dB 3:56 13-The Bonds Of Love
DR11 0.00 dB -12.03 dB 4:10 14-Angels
DR11 -0.09 dB -12.36 dB 3:50 15-No Change Is Sexy
DR10 -0.29 dB -12.11 dB 3:55 16-Raga
DR13 -0.07 dB -14.01 dB 2:55 17-Forever

Number of tracks: 17
Official DR value: DR11

Samplerate: 44100 Hz
Channels: 2
Bits per sample: 16
Bitrate: 865 kbps
Codec: FLAC

Jah Wobble's Invaders Of The Heart - Take Me To God (1994)

Jah Wobble's Invaders Of The Heart - Take Me To God (1994)

All thanks to original releaser - alekow
Password: designol

DOWNLOAD LINKS:
Buy Premium To Support Me & Get Resumable Support & Max Speed


Links are Interchangeable - No Password - Single Extraction

Direct Download

Tags: Wobble, Invaders

Jah Wobble's Invaders Of The Heart - Take Me To God (1994) Download via Hotfile Rapidshare Fileserve Megaupload & FileSonic, Jah Wobble's Invaders Of The Heart - Take Me To God (1994) free torrent downloads included crack, serial, keygen.


Attention!Information

Members of Guest cannot leave comments.