Jason Eckardt - Subject (2015) {Tzadik TZ 9006}

Download Now


Jason Eckardt - Subject (2015) {Tzadik TZ 9006}
Jason Eckardt - Subject (2015) {Tzadik TZ 9006}
EAC rip (secure mode) | FLAC (tracks)+CUE+LOG -> 298 Mb | MP3 @320 -> 167 Mb
Full Artwork @ 600 dpi (png) -> 225 Mb | 5% repair rar
© 2015 Tzadik | TZ 9006 | Tzadik Composer Series
Classical / Avant-Garde / Contemporary Classical

"Jason Eckardt began as a heavy metal guitarist and turned to contemporary music after hearing Webern. His music is highly complex andr etains the energy and intensity of his heavy metal roots. Challenging and highly virtuosic, his compositional language embraces both uptown and downtown. Brilliantly performed by JACK, ICE and the Oberlin Contemporary Music Ensemble, "Subject" contains some of his most extreme and intense works."

Jason Eckardt - Subject (2015) {Tzadik TZ 9006}


Personnel:
Tony Arnold: Soprano
Gabrielle Athayde: Cellos
Danielle Bogacz: Horn
Jay Campbell: Cellos
Jordan Dodson: Guitars
Laura Dykes: Bass
Wendy Everett: Bassoon
David Fulmer: Conductor
Grace Hong: Oboe
Matthew Jenkins: Percussion
Ross Karre: Percussion
Eric Lamb: Flutes
Daniel Lippel: Guitars
Campbell MacDonald: Clarinets
Andrew McCollum: Clarinets
Kevin McFarland: Cellos
Marilyn Nonken: Piano
Christopher Otto: Violins
Erin Ponto: Harp
John Pickford Richards: Violas
Wendy Richman: Violas
Hannah Shaw: Violas
Ari Streisfeld: Violins
Alice Teyssier: Flutes
Timothy Weiss: Conductor
Jeffrey Young: Violins
Yuncong Zhang: Violins

tracklist:
01 - Subject
02 - Paths Of Resistance
03 - Trespass
04 - Flux
05 - Tongues I
06 - Tongues II
07 - Tongues III
08 - Tongues IV
09 - Tongues V
10 - Tongues VI

Exact Audio Copy V1.1 from 23. June 2015

EAC extraction logfile from 1. September 2015, 12:24

Jason Eckardt / Subject

Used drive : TSSTcorpCDDVDW SE-208DB Adapter: 7 ID: 0

Read mode : Secure
Utilize accurate stream : Yes
Defeat audio cache : Yes
Make use of C2 pointers : No

Read offset correction

: 6
Overread into Lead-In and Lead-Out : No
Fill up missing offset samples with silence : Yes
Delete leading and trailing silent blocks : No
Null samples used in CRC calculations : Yes
Used interface
: Installed external ASPI interface
Gap handling
: Appended to previous track

Used output format : User Defined Encoder
Selected bitrate : 1024 kBit/s
Quality : High
Add ID3 tag : No
Command line compressor : C:\Program Files (x86)\FLAC Frontend\tools\flac.exe
Additional command line options : -8 -V -T "ARTIST=%artist%" -T "TITLE=%title%" -T "ALBUM=%albumtitle%" -T "DATE=%year%" -T "TRACKNUMBER=%tracknr%" -T "TOTALTRACKS=%numtracks%" -T "GENRE=%genre%" -T "ALBUMARTIST=%albumartist%" -T "ALBUM ARTIST=%albumartist%" -T "COMMENT=EAC Secure Mode, Test & Copy, AccurateRip, FLAC -8" %source%

TOC of the extracted CD Track | Start | Length | Start sector | End sector
--1 | 0:00.00 | 14:50.20 | 0 | 66769 2 | 14:50.20 | 7:04.26 | 66770 | 98595 3 | 21:54.46 | 14:39.27 | 98596 | 164547 4 | 36:33.73 | 5:34.71 | 164548 | 189668 5 | 42:08.69 | 5:29.68 | 189669 | 214411 6 | 47:38.62 | 5:30.47 | 214412 | 239208 7 | 53:09.34 | 2:53.68 | 239209 | 252251 8 | 56:03.27 | 3:09.25 | 252252 | 266451 9 | 59:12.52 | 5:21.30 | 266452 | 290556
10 | 64:34.07 | 5:17.39 | 290557 | 314370

Track 1 Filename M:\_EAC\Jason Eckardt - Subject (2015) [FLAC] {Tzadik TZ 9006}\01 - Subject.wav Pre-gap length 0:00:02.00 Peak level 79.5 %
Extraction speed 3.3 X
Track quality 100.0 %
Test CRC AF91BF08
Copy CRC AF91BF08
Track not present in AccurateRip database
Copy OK

Track 2 Filename M:\_EAC\Jason Eckardt - Subject (2015) [FLAC] {Tzadik TZ 9006}\02 - Paths Of Resistance.wav Peak level 90.2 %
Extraction speed 3.9 X
Track quality 100.0 %
Test CRC D1019FC5
Copy CRC D1019FC5
Track not present in AccurateRip database
Copy OK

Track 3 Filename M:\_EAC\Jason Eckardt - Subject (2015) [FLAC] {Tzadik TZ 9006}\03 - Trespass.wav Peak level 88.5 %
Extraction speed 4.6 X
Track quality 100.0 %
Test CRC 6B81EB21
Copy CRC 6B81EB21
Track not present in AccurateRip database
Copy OK

Track 4 Filename M:\_EAC\Jason Eckardt - Subject (2015) [FLAC] {Tzadik TZ 9006}\04 - Flux.wav Peak level 96.9 %
Extraction speed 4.0 X
Track quality 99.9 %
Test CRC FB474B44
Copy CRC FB474B44
Track not present in AccurateRip database
Copy OK

Track 5 Filename M:\_EAC\Jason Eckardt - Subject (2015) [FLAC] {Tzadik TZ 9006}\05 - Tongues I.wav Peak level 98.7 %
Extraction speed 4.9 X
Track quality 100.0 %
Test CRC B60ACAAE
Copy CRC B60ACAAE
Track not present in AccurateRip database
Copy OK

Track 6 Filename M:\_EAC\Jason Eckardt - Subject (2015) [FLAC] {Tzadik TZ 9006}\06 - Tongues II.wav Peak level 97.8 %
Extraction speed 5.1 X
Track quality 100.0 %
Test CRC 937AB7FB
Copy CRC 937AB7FB
Track not present in AccurateRip database
Copy OK

Track 7 Filename M:\_EAC\Jason Eckardt - Subject (2015) [FLAC] {Tzadik TZ 9006}\07 - Tongues III.wav Peak level 98.1 %
Extraction speed 4.7 X
Track quality 100.0 %
Test CRC B1EAD15C
Copy CRC B1EAD15C
Track not present in AccurateRip database
Copy OK

Track 8 Filename M:\_EAC\Jason Eckardt - Subject (2015) [FLAC] {Tzadik TZ 9006}\08 - Tongues IV.wav Peak level 97.6 %
Extraction speed 4.9 X
Track quality 100.0 %
Test CRC 1A0571E7
Copy CRC 1A0571E7
Track not present in AccurateRip database
Copy OK

Track 9 Filename M:\_EAC\Jason Eckardt - Subject (2015) [FLAC] {Tzadik TZ 9006}\09 - Tongues V.wav Peak level 96.8 %
Extraction speed 5.4 X
Track quality 100.0 %
Test CRC 65E44A41
Copy CRC 65E44A41
Track not present in AccurateRip database
Copy OK

Track 10 Filename M:\_EAC\Jason Eckardt - Subject (2015) [FLAC] {Tzadik TZ 9006}\10 - Tongues VI.wav Peak level 97.2 %
Extraction speed 5.6 X
Track quality 100.0 %
Test CRC 693249C6
Copy CRC 693249C6
Track not present in AccurateRip database
Copy OK

None of the tracks are present in the AccurateRip database

No errors occurred

End of status report

==== Log checksum 10C4A978EBF4947BC82F8D21AE793359C0331CF9C499F0F896EEF2EB7E466979 ====

Jason Eckardt - Subject (2015) {Tzadik TZ 9006}

Jason Eckardt - Subject (2015) {Tzadik TZ 9006}

Download links:
(Buy premium account via my links to have best speed and resumable ability)


Interchangeable links - No Pass

Direct Download

Tags: Eckardt, Subject, Tzadik

Jason Eckardt - Subject (2015) {Tzadik TZ 9006} Download via Hotfile Rapidshare Fileserve Megaupload & FileSonic, Jason Eckardt - Subject (2015) {Tzadik TZ 9006} free torrent downloads included crack, serial, keygen.


Attention!Information

Members of Guest cannot leave comments.