Bob Seger - Seven (1974)

Download Now

Bob Seger - Seven (1974)

Bob Seger - Seven (1974)
EAC | Flac(Image) + Cue + Log & MP3 CBR 320Kbps
1993 | Emi/Capitol, 07777 81241 2 2 | ~ 212 or 87 Mb | Scans Included
Rock & Roll / Classic Rock

"With his seventh album, appropriately titled Seven, Bob Seger delivered one of his strongest, hardest-hitting rock records -- the toughest since the days of the Bob Seger System. Not to say that he ever abandoned rock & roll, since Back in '72 was filled with fantastic rockers, but it was tempered with reflective singer/songwriter material..."


Tracklist:

01. Get Out Of Denver (2:44)
02. Long Song Comin' (4:30)
03. Need Ya (3:23)
04. School Teacher (2:45)
05. Cross Of Gold (2:23)
06. U.M.C. (Upper Middle Class) (3:15)
07. Seen A Lot Of Floors (3:00)
08. 20 Years From Now (4:31)
09. All Your Love (4:32)

Exact Audio Copy V1.0 beta 1 from 15. November 2010

Отчёт EAC об извлечении, выполненном 7. июня 2013, 6:16

Bob Seger / Seven

Дисковод: HL-DT-STDVDRAM GSA-H44N Adapter: 0 ID: 0

Режим чтения : Достоверность
Использование точного потока : Да
Отключение кэша аудио : Да
Использование указателей C2 : Нет

Коррекция смещения при чтении : 667
Способность читать области Lead-in и Lead-out : Нет
Заполнение пропущенных сэмплов тишиной : Да
Удаление блоков с тишиной в начале и конце : Нет
При вычислениях CRC использовались нулевые сэмплы : Да
Интерфейс : Встроенный Win32-интерфейс для Win NT/2000

Выходной формат : Пользовательский кодировщик
Выбранный битрейт : 1024 kBit/s
Качество : Высокий
Добавление ID3-тега : Нет
Утилита сжатия : C:\Program Files\Exact Audio Copy\FLAC\FLAC.EXE
Дополнительные параметры : -6 -V -T "ARTIST=%a" -T "TITLE=%t" -T "ALBUM=%g" -T "DATE=%y" -T "TRACKNUMBER=%n" -T "GENRE=%m" -T "COMMENT=%e" %j--picture="%i"%j %s -o %d

TOC извлечённого CD Трек | Старт | Длительность | Начальный сектор | Конечный сектор

1 | 0:00.00 | 2:46.22 | 0 | 12471
2 | 2:46.22 | 4:32.20 | 12472 | 32891
3 | 7:18.42 | 3:25.65 | 32892 | 48331
4 | 10:44.32 | 2:47.17 | 48332 | 60873
5 | 13:31.49 | 2:25.16 | 60874 | 71764
6 | 15:56.65 | 3:17.66 | 71765 | 86605
7 | 19:14.56 | 3:02.13 | 86606 | 100268
8 | 22:16.69 | 4:33.57 | 100269 | 120800
9 | 26:50.51 | 4:32.66 | 120801 | 141266

Характеристики диапазона извлечения и сообщения об ошибках

Выбранный диапазон Имя файла F:\Bob Seger\Flac\Bob Seger - Seven (1974)\Bob Seger - Seven.wav Пиковый уровень 100.0 %
Скорость извлечения 0.9 X
Качество диапазона 100.0 %
CRC копии 8E0B1C78
Копирование... OK

Ошибок не произошло

Конец отчёта

foobar2000 1.2.9 / Dynamic Range Meter 1.1.1
log date: 2015-09-03 20:07:44

Analyzed: Bob Seger / Seven

DR Peak RMS Duration Track

DR8 -0.01 dB -9.48 dB 2:46 01-Get Out Of Denver
DR8 0.00 dB -9.54 dB 4:32 02-Long Song Comin'
DR8 -0.22 dB -10.31 dB 3:26 03-Need Ya
DR9 -0.18 dB -11.13 dB 2:47 04-School Teacher
DR9 -0.02 dB -10.12 dB 2:25 05-Cross Of Gold
DR9 0.00 dB -12.23 dB 3:18 06-U.M.C. (Upper Middle Class)
DR10 -0.05 dB -11.89 dB 3:02 07-Seen A Lot Of Floors
DR12 -0.36 dB -14.85 dB 4:34 08-20 Years From Now
DR9 0.00 dB -11.22 dB 4:33 09-All Your Love

Number of tracks: 9
Official DR value: DR9

Samplerate: 44100 Hz
Channels: 2
Bits per sample: 16
Bitrate: 862 kbps
Codec: FLAC

[CUETools log; Date: 03.09.2015 20:02:53; Version: 2.1.4]
[CTDB TOCID: sLIRh9VBm3fxL99TPQkkHGM1TZs-] disk not present in database.
[AccurateRip ID: 000a4dce-004bafb6-71075b09] found.
Track [ CRC | V2 ] Status
01 [691b2b38|d8f13002] (0+0/1) No match
02 [0cd678f5|09e4fd29] (0+0/1) No match
03 54f3837|177e39e3 (0+0/1) No match
04 [27e94ebf|b668e99b] (0+0/1) No match
05 [429724da|6dde0db2] (0+0/1) No match
06 [d32acdda|8fb254d0] (0+0/1) No match
07 [e018f949|dd577883] (0+0/1) No match
08 [2f178fc6|414ada2a] (0+0/1) No match
09 [e6e209f8|57953861] (0+0/1) No match
Offsetted by -30:
01 [daaf5c2e] (0/1) No match (V2 was not tested)
02 [e2562c7d] (0/1) No match (V2 was not tested)
03 [83e52ec7] (0/1) No match (V2 was not tested)
04 [e2d04e01] (0/1) No match (V2 was not tested)
05 [378ab028] (0/1) No match (V2 was not tested)
06 [d24d7af0] (0/1) No match (V2 was not tested)
07 [9ed36c9b] (0/1) No match (V2 was not tested)
08 521fb58 (0/1) No match (V2 was not tested)
09 [6ac906a0] (0/1) No match (V2 was not tested)

Track Peak [ CRC32 ] [W/O NULL] [ LOG ]
-- 100,0 [8E0B1C78] F1416E5 CRC32
01 99,9 [A96FF428] [7D3277B2]
02 100,0 [65EC39DE] [9E66BBE9]
03 97,4 [312D5C5C] [4A07E43C]
04 97,9 [5AA3F462] [0C924AB8]
05 99,7 [45C309D4] [6CE555DF]
06 100,0 [AD74E597] [48E0CCC9]
07 99,4 [FBEC6B2F] [59BA05B6]
08 95,9 [04756FFB] FD5ED76
09 100,0 [8E99378D] 6A22F2A

Bob Seger - Seven (1974)

Download:
Buy Premium To Support Me & Get Resumable Support & Max Speed


Links are Interchangeable - No Password

Direct Download

Bob Seger - Seven (1974) Download via Hotfile Rapidshare Fileserve Megaupload & FileSonic, Bob Seger - Seven (1974) free torrent downloads included crack, serial, keygen.


Attention!Information

Members of Guest cannot leave comments.