Muddy Frankenstein - Dance With Evil (1997)

Download Now

Muddy Frankenstein - Dance With Evil (1997)

Muddy Frankenstein - Dance With Evil (1997)
EAC Rip | FLAC with CUE and log | scans | 236 mb
MP3 CBR 320kbps | RAR | 72 mb
Genre: garage rock, punk rock, indie rock

Dance With Evil is a 1997 album by Japanese garage punk band Muddy Frankenstein. If you are a fan of Mudhoney and New Bomb Turks, you are sure to enjoy the sounds of Muddy Frankenstein.
Muddy Frankenstein - Dance With Evil (1997)

1 Captain Moondog 2:56
2 Dance With Evil 4:18
3 It's Up To You 2:46
4 Leave It And Run 1:52
5 Gulliver 2:10
6 Nightmare 3:28
7 Busy Man 3:59
8 You Don't Know 4:09
9 Detroit Love Animals 3:26
10 Mantra Jet (Rama-Lama-Lama-Fa-Fa-Fa) 3:26

Exact Audio Copy V1.1 from 23. June 2015

EAC extraction logfile from 1. September 2015, 8:43

Muddy Frankenstein / Dance With Evil

Used drive : TEAC DVD-ROM DV-28SW Adapter: 1 ID: 0

Read mode : Secure
Utilize accurate stream : Yes
Defeat audio cache : Yes
Make use of C2 pointers : No

Read offset correction

: 6
Overread into Lead-In and Lead-Out : No
Fill up missing offset samples with silence : Yes
Delete leading and trailing silent blocks : No
Null samples used in CRC calculations : Yes
Used interface
: Native Win32 interface for Win NT & 2000
Gap handling
: Appended to previous track

Used output format : Internal WAV Routines
Sample format : 44.100 Hz; 16 Bit; Stereo

TOC of the extracted CD Track | Start | Length | Start sector | End sector
--1 | 0:00.00 | 2:30.36 | 0 | 11285 2 | 2:30.36 | 4:18.19 | 11286 | 30654 3 | 6:48.55 | 2:45.51 | 30655 | 43080 4 | 9:34.31 | 1:47.36 | 43081 | 51141 5 | 11:21.67 | 2:09.40 | 51142 | 60856 6 | 13:31.32 | 3:27.30 | 60857 | 76411 7 | 16:58.62 | 4:00.69 | 76412 | 94480 8 | 20:59.56 | 4:05.26 | 94481 | 112881 9 | 25:05.07 | 3:25.01 | 112882 | 128257
10 | 28:30.08 | 2:46.35 | 128258 | 140742

Track 1 Filename C:\My Documents\My FLAC\Muddy Frankenstein - Dance With Evil (1997) [FLAC]\01 - Captain Moondog.wav Pre-gap length 0:00:02.00 Peak level 96.6 %
Extraction speed 2.6 X
Track quality 100.0 %
Test CRC 31DBCB3F
Copy CRC 31DBCB3F
Accurately ripped (confidence 1) [DF0FD2C9] (AR v2)
Copy OK

Track 2 Filename C:\My Documents\My FLAC\Muddy Frankenstein - Dance With Evil (1997) [FLAC]\02 - Dance With Evil.wav Peak level 96.6 %
Extraction speed 3.0 X
Track quality 100.0 %
Test CRC 7DC313BB
Copy CRC 7DC313BB
Accurately ripped (confidence 1) [730F7AAB] (AR v2)
Copy OK

Track 3 Filename C:\My Documents\My FLAC\Muddy Frankenstein - Dance With Evil (1997) [FLAC]\03 - It's Up To You.wav Peak level 96.6 %
Extraction speed 2.5 X
Track quality 99.9 %
Test CRC BE03A6D9
Copy CRC BE03A6D9
Accurately ripped (confidence 1) [217BA59E] (AR v2)
Copy OK

Track 4 Filename C:\My Documents\My FLAC\Muddy Frankenstein - Dance With Evil (1997) [FLAC]\04 - Leave It And Run.wav Pre-gap length 0:00:00.01 Peak level 96.6 %
Extraction speed 2.8 X
Track quality 100.0 %
Test CRC 133A7AA1
Copy CRC 133A7AA1
Accurately ripped (confidence 1) [9B5CBEEC] (AR v2)
Copy OK

Track 5 Filename C:\My Documents\My FLAC\Muddy Frankenstein - Dance With Evil (1997) [FLAC]\05 - Gulliver.wav Pre-gap length 0:00:00.02 Peak level 100.0 %
Extraction speed 3.2 X
Track quality 100.0 %
Test CRC 53BC4E11
Copy CRC 53BC4E11
Accurately ripped (confidence 1) [DC9279AF] (AR v2)
Copy OK

Track 6 Filename C:\My Documents\My FLAC\Muddy Frankenstein - Dance With Evil (1997) [FLAC]\06 - Nightmare.wav Peak level 96.6 %
Extraction speed 3.5 X
Track quality 100.0 %
Test CRC BC675A78
Copy CRC BC675A78
Accurately ripped (confidence 1) [0E9316DF] (AR v2)
Copy OK

Track 7 Filename C:\My Documents\My FLAC\Muddy Frankenstein - Dance With Evil (1997) [FLAC]\07 - Busy Man.wav Peak level 96.6 %
Extraction speed 3.9 X
Track quality 100.0 %
Test CRC F1A3DE9B
Copy CRC F1A3DE9B
Accurately ripped (confidence 1) [E5C2F0AA] (AR v2)
Copy OK

Track 8 Filename C:\My Documents\My FLAC\Muddy Frankenstein - Dance With Evil (1997) [FLAC]\08 - You Don't Know.wav Peak level 96.6 %
Extraction speed 3.5 X
Track quality 99.9 %
Test CRC 0A71892F
Copy CRC 0A71892F
Accurately ripped (confidence 1) 2ABADE4 (AR v2)
Copy OK

Track 9 Filename C:\My Documents\My FLAC\Muddy Frankenstein - Dance With Evil (1997) [FLAC]\09 - Detroit Love Animals.wav Pre-gap length 0:00:00.01 Peak level 96.6 %
Extraction speed 4.2 X
Track quality 100.0 %
Test CRC 1D327AD5
Copy CRC 1D327AD5
Accurately ripped (confidence 1) [5AB52522] (AR v2)
Copy OK

Track 10 Filename C:\My Documents\My FLAC\Muddy Frankenstein - Dance With Evil (1997) [FLAC]\10 - Mantra Jet (Rama-Lama-Lama-Fa-Fa-Fa).wav Peak level 96.6 %
Extraction speed 4.1 X
Track quality 100.0 %
Test CRC 470FA07A
Copy CRC 470FA07A
Accurately ripped (confidence 1) [18D3B72A] (AR v2)
Copy OK

All tracks accurately ripped

No errors occurred

End of status report

- CUETools DB Plugin V2.1.6

[CTDB TOCID: J..FIsTaxCUTm1NHI1md2KS2BrQ-] disk not present in database
Submit result: J..FIsTaxCUTm1NHI1md2KS2BrQ- has been uploaded

Muddy Frankenstein - Dance With Evil (1997)

DOWNLOAD LINKS:
(Premium Recommended)


All above links are interchangable. No password

Direct Download

Tags: Frankenstein

Muddy Frankenstein - Dance With Evil (1997) Download via Hotfile Rapidshare Fileserve Megaupload & FileSonic, Muddy Frankenstein - Dance With Evil (1997) free torrent downloads included crack, serial, keygen.


Attention!Information

Members of Guest cannot leave comments.