VA - 100 Hits: 2000s Anthems (2014)

Download Now

VA - 100 Hits: 2000s Anthems (2014)

VA - 100 Hits: 2000s Anthems (2014)
EAC | Flac(Image) + Cue + Log & MP3 CBR 320Kbps
5CD | Sony Music, DMG 100 145 | ~ 2716 or 887 Mb | Scans Included
Rock / Pop / Pop Rock / Pop Punk / Dance / Hip-Hop

~ 100 Classic Tracks of the Decade ~


"A good selection of songs of alternative with some cheese added to the recipe. There are plenty of tracks which brung back memories from when I was a child well and truely into music! The one reason why this product loses a star is that there are no songs from 2008 and 2009, which occurs in '100 Hits - 2000s' as well. Another reason on how this album could be improved is that it is missing a lot of excellent artists from then such as S Club 7 (or Juniors), Kylie and Dannii Minogue, Artful Dodger, Robbie Williams, Black Eyed Peas, Will Young, and so forth. But you still have many popular songs on here that we should be hearing today, nevermind the garbage that is in the charts today! ;)

Highlights:

Toploader - Dancing In The Moonlight
The Calling - Wherever You Will Go
Lonestar - Amazed
3SL - Touch Me, Tease Me
DJ Otzi - Hey Baby (Uhh Ahh) [This was played a lot at primary school!]
Heather Small - Proud
Cheeky Girls - The Cheeky Song like this kind of music, not sure about the lyrics though!
Bomfunk MC - Freestyler wish they would put on the full 5 minute version
Gareth Gates - Sunshine est track of the set!
Lemar - Dance (With U)
Simply Red - Sunrise

Great price, great album, highly recommended. Enjoy and tune in!


By Breezette, amazon
"

VA - 100 Hits: 2000s Anthems (2014):

VA - 100 Hits: 2000s Anthems (2014)

Tracklist CD1:

01. The Zutons - You Will You Won't (2:56)
02. Editors - Smokers Outside the Hospital Doors (4:02)
03. Reef - Set the Record Straight (3:58)
04. Mint Royale - Singin' in the Rain (2:06)
05. Kosheen - Hide U (4:13)
06. Death In Vegas - Dirge (5:42)
07. Toploader - Dancing in the Moonlight (3:52)
08. Hepburn - Deep Deep Down (3:04)
09. The Calling - Wherever You Will Go (3:28)
10. The Hoosiers - Cops and Robbers (4:00)
11. Wheatus - A Little Respect (3:28)
12. Ashley Hamilton - Wimmin (3:09)
13. Switchfoot - Meant to Live (3:22)
14. Kurt Nilsen - She's So High (4:10)
15. Lonestar - Amazed (4:01)
16. Brian McFadden - Demons (3:37)
17. Deacon Blue - The Outsiders (4:06)
18. A1 - Caught in the Middle (3:27)
19. Simply Red - You Make Me Feel Brand New (5:06)
20. Len - Cryptik Souls Crew (4:24)

Exact Audio Copy V1.1 from 23. June 2015

EAC extraction logfile from 16. August 2015, 9:39

Various Artists / 100 Hits - 2000s Anthems (CD 1)

Used drive : PIONEER BD-RW BDR-206 Adapter: 1 ID: 0

Read mode : Secure
Utilize accurate stream : Yes
Defeat audio cache : Yes
Make use of C2 pointers : No

Read offset correction

: 667
Overread into Lead-In and Lead-Out : No
Fill up missing offset samples with silence : Yes
Delete leading and trailing silent blocks : No
Null samples used in CRC calculations : Yes
Used interface
: Native Win32 interface for Win NT & 2000
Gap handling
: Appended to previous track

Used output format : User Defined Encoder
Selected bitrate : 1024 kBit/s
Quality : High
Add ID3 tag : No
Command line compressor : C:\Program Files (x86)\Exact Audio Copy\Flac\flac.exe
Additional command line options : -8 -V -T "artist=%artist%" -T "title=%title%" -T "album=%albumtitle%" -T "date=%year%" -T "tracknumber=%tracknr%" -T "genre=%genre%" %source%

TOC of the extracted CD Track | Start | Length | Start sector | End sector
--1 | 0:00.00 | 2:55.48 | 0 | 13172 2 | 2:55.48 | 4:01.69 | 13173 | 31316 3 | 6:57.42 | 3:57.44 | 31317 | 49135 4 | 10:55.11 | 2:05.44 | 49136 | 58554 5 | 13:00.55 | 4:13.13 | 58555 | 77542 6 | 17:13.68 | 5:41.63 | 77543 | 103180 7 | 22:55.56 | 3:52.07 | 103181 | 120587 8 | 26:47.63 | 3:04.32 | 120588 | 134419 9 | 29:52.20 | 3:28.28 | 134420 | 150047
10 | 33:20.48 | 4:00.16 | 150048 | 168063
11 | 37:20.64 | 3:28.14 | 168064 | 183677
12 | 40:49.03 | 3:08.74 | 183678 | 197851
13 | 43:58.02 | 3:21.65 | 197852 | 212991
14 | 47:19.67 | 4:09.72 | 212992 | 231738
15 | 51:29.64 | 4:01.26 | 231739 | 249839
16 | 55:31.15 | 3:37.00 | 249840 | 266114
17 | 59:08.15 | 4:06.07 | 266115 | 284571
18 | 63:14.22 | 3:26.54 | 284572 | 300075
19 | 66:41.01 | 5:06.18 | 300076 | 323043
20 | 71:47.19 | 4:24.18 | 323044 | 342861

Track 1 Filename D:\EAC rips\VA - 100 Hits - 2000s Anthems (CD 1) (2014)(Flac+.cue)\CD1\01. The Zutons - You Will You Won't.wav Pre-gap length 0:00:02.00 Peak level 94.6 %
Extraction speed 3.8 X
Track quality 99.9 %
Test CRC 448A1503
Copy CRC 448A1503
Track not present in AccurateRip database
Copy OK

Track 2 Filename D:\EAC rips\VA - 100 Hits - 2000s Anthems (CD 1) (2014)(Flac+.cue)\CD1\02. Editors - Smokers Outside the Hospital Doors.wav Pre-gap length 0:00:01.74 Peak level 82.8 %
Extraction speed 4.9 X
Track quality 100.0 %
Test CRC 42D8F122
Copy CRC 42D8F122
Track not present in AccurateRip database
Copy OK

Track 3 Filename D:\EAC rips\VA - 100 Hits - 2000s Anthems (CD 1) (2014)(Flac+.cue)\CD1\03. Reef - Set the Record Straight.wav Pre-gap length 0:00:01.74 Peak level 86.8 %
Extraction speed 5.3 X
Track quality 100.0 %
Test CRC A05B02D3
Copy CRC A05B02D3
Track not present in AccurateRip database
Copy OK

Track 4 Filename D:\EAC rips\VA - 100 Hits - 2000s Anthems (CD 1) (2014)(Flac+.cue)\CD1\04. Mint Royale - Singin' in the Rain.wav Pre-gap length 0:00:02.00 Peak level 83.5 %
Extraction speed 5.0 X
Track quality 100.0 %
Test CRC C6AD704F
Copy CRC C6AD704F
Track not present in AccurateRip database
Copy OK

Track 5 Filename D:\EAC rips\VA - 100 Hits - 2000s Anthems (CD 1) (2014)(Flac+.cue)\CD1\05. Kosheen - Hide U.wav Pre-gap length 0:00:01.74 Peak level 88.0 %
Extraction speed 5.9 X
Track quality 100.0 %
Test CRC 0E1515FF
Copy CRC 0E1515FF
Track not present in AccurateRip database
Copy OK

Track 6 Filename D:\EAC rips\VA - 100 Hits - 2000s Anthems (CD 1) (2014)(Flac+.cue)\CD1\06. Death In Vegas - Dirge.wav Pre-gap length 0:00:01.74 Peak level 98.8 %
Extraction speed 6.5 X
Track quality 100.0 %
Test CRC B03D3270
Copy CRC B03D3270
Track not present in AccurateRip database
Copy OK

Track 7 Filename D:\EAC rips\VA - 100 Hits - 2000s Anthems (CD 1) (2014)(Flac+.cue)\CD1\07. Toploader - Dancing in the Moonlight.wav Pre-gap length 0:00:01.74 Peak level 96.6 %
Extraction speed 5.8 X
Track quality 99.9 %
Test CRC 8DD84455
Copy CRC 8DD84455
Track not present in AccurateRip database
Copy OK

Track 8 Filename D:\EAC rips\VA - 100 Hits - 2000s Anthems (CD 1) (2014)(Flac+.cue)\CD1\08. Hepburn - Deep Deep Down.wav Pre-gap length 0:00:01.74 Peak level 98.8 %
Extraction speed 6.5 X
Track quality 100.0 %
Test CRC 67ADE783
Copy CRC 67ADE783
Track not present in AccurateRip database
Copy OK

Track 9 Filename D:\EAC rips\VA - 100 Hits - 2000s Anthems (CD 1) (2014)(Flac+.cue)\CD1\09. The Calling - Wherever You Will Go.wav Pre-gap length 0:00:01.74 Peak level 87.4 %
Extraction speed 6.8 X
Track quality 100.0 %
Test CRC 0C0FBA3D
Copy CRC 0C0FBA3D
Track not present in AccurateRip database
Copy OK

Track 10 Filename D:\EAC rips\VA - 100 Hits - 2000s Anthems (CD 1) (2014)(Flac+.cue)\CD1\10. The Hoosiers - Cops and Robbers.wav Pre-gap length 0:00:01.74 Peak level 88.0 %
Extraction speed 7.2 X
Track quality 100.0 %
Test CRC EEE6F7B0
Copy CRC EEE6F7B0
Track not present in AccurateRip database
Copy OK

Track 11 Filename D:\EAC rips\VA - 100 Hits - 2000s Anthems (CD 1) (2014)(Flac+.cue)\CD1\11. Wheatus - A Little Respect.wav Pre-gap length 0:00:01.74 Peak level 88.3 %
Extraction speed 7.1 X
Track quality 100.0 %
Test CRC 6263C500
Copy CRC 6263C500
Track not present in AccurateRip database
Copy OK

Track 12 Filename D:\EAC rips\VA - 100 Hits - 2000s Anthems (CD 1) (2014)(Flac+.cue)\CD1\12. Ashley Hamilton - Wimmin.wav Pre-gap length 0:00:01.74 Peak level 69.8 %
Extraction speed 7.1 X
Track quality 100.0 %
Test CRC 201F88D6
Copy CRC 201F88D6
Track not present in AccurateRip database
Copy OK

Track 13 Filename D:\EAC rips\VA - 100 Hits - 2000s Anthems (CD 1) (2014)(Flac+.cue)\CD1\13. Switchfoot - Meant to Live.wav Pre-gap length 0:00:01.74 Peak level 83.4 %
Extraction speed 6.5 X
Track quality 99.9 %
Test CRC 3A90A46F
Copy CRC 3A90A46F
Track not present in AccurateRip database
Copy OK

Track 14 Filename D:\EAC rips\VA - 100 Hits - 2000s Anthems (CD 1) (2014)(Flac+.cue)\CD1\14. Kurt Nilsen - She's So High.wav Pre-gap length 0:00:01.74 Peak level 87.2 %
Extraction speed 7.0 X
Track quality 99.9 %
Test CRC 9B16FAA9
Copy CRC 9B16FAA9
Track not present in AccurateRip database
Copy OK

Track 15 Filename D:\EAC rips\VA - 100 Hits - 2000s Anthems (CD 1) (2014)(Flac+.cue)\CD1\15. Lonestar - Amazed.wav Pre-gap length 0:00:01.74 Peak level 98.8 %
Extraction speed 7.1 X
Track quality 99.9 %
Test CRC E9240808
Copy CRC E9240808
Track not present in AccurateRip database
Copy OK

Track 16 Filename D:\EAC rips\VA - 100 Hits - 2000s Anthems (CD 1) (2014)(Flac+.cue)\CD1\16. Brian McFadden - Demons.wav Pre-gap length 0:00:01.74 Peak level 98.8 %
Extraction speed 8.3 X
Track quality 100.0 %
Test CRC 4794DA1F
Copy CRC 4794DA1F
Track not present in AccurateRip database
Copy OK

Track 17 Filename D:\EAC rips\VA - 100 Hits - 2000s Anthems (CD 1) (2014)(Flac+.cue)\CD1\17. Deacon Blue - The Outsiders.wav Pre-gap length 0:00:01.74 Peak level 89.3 %
Extraction speed 8.3 X
Track quality 100.0 %
Test CRC 39BF710A
Copy CRC 39BF710A
Track not present in AccurateRip database
Copy OK

Track 18 Filename D:\EAC rips\VA - 100 Hits - 2000s Anthems (CD 1) (2014)(Flac+.cue)\CD1\18. A1 - Caught in the Middle.wav Pre-gap length 0:00:01.74 Peak level 94.7 %
Extraction speed 8.3 X
Track quality 100.0 %
Test CRC 6F2B536D
Copy CRC 6F2B536D
Track not present in AccurateRip database
Copy OK

Track 19 Filename D:\EAC rips\VA - 100 Hits - 2000s Anthems (CD 1) (2014)(Flac+.cue)\CD1\19. Simply Red - You Make Me Feel Brand New.wav Pre-gap length 0:00:01.74 Peak level 98.8 %
Extraction speed 8.9 X
Track quality 100.0 %
Test CRC F18F3A1C
Copy CRC F18F3A1C
Track not present in AccurateRip database
Copy OK

Track 20 Filename D:\EAC rips\VA - 100 Hits - 2000s Anthems (CD 1) (2014)(Flac+.cue)\CD1\20. Len - Cryptik Souls Crew.wav Pre-gap length 0:00:01.74 Peak level 98.8 %
Extraction speed 8.9 X
Track quality 100.0 %
Test CRC B52E2AD2
Copy CRC B52E2AD2
Track not present in AccurateRip database
Copy OK

None of the tracks are present in the AccurateRip database

No errors occurred

End of status report

- CUETools DB Plugin V2.1.6

[CTDB TOCID: vDEmBJFIvF37IDUBJtqBAs4ZoWk-] found
Submit result: vDEmBJFIvF37IDUBJtqBAs4ZoWk- has been confirmed
Track | CTDB Status
1 | (2/2) Accurately ripped
2 | (2/2) Accurately ripped
3 | (2/2) Accurately ripped
4 | (2/2) Accurately ripped
5 | (2/2) Accurately ripped
6 | (2/2) Accurately ripped
7 | (2/2) Accurately ripped
8 | (2/2) Accurately ripped
9 | (2/2) Accurately ripped
10 | (2/2) Accurately ripped
11 | (2/2) Accurately ripped
12 | (2/2) Accurately ripped
13 | (2/2) Accurately ripped
14 | (2/2) Accurately ripped
15 | (2/2) Accurately ripped
16 | (2/2) Accurately ripped
17 | (2/2) Accurately ripped
18 | (2/2) Accurately ripped
19 | (2/2) Accurately ripped
20 | (2/2) Accurately ripped

==== Log checksum 05BB4A0AC6399C0AEB6FFD61A1F8F44131051822C1314C9DDF1B6BA0964A25A4 ====

foobar2000 1.2.9 / Dynamic Range Meter 1.1.1
log date: 2015-09-04 13:31:39

Analyzed: Ashley Hamilton / 100 Hits - 2000s Anthems (CD 1) (1) Brian McFadden / 100 Hits - 2000s Anthems (CD 1) (2) Deacon Blue / 100 Hits - 2000s Anthems (CD 1) (3)

DR Peak RMS Duration Track

DR4 -3.11 dB -8.28 dB 3:09 12-Wimmin
DR6 -0.10 dB -9.66 dB 3:37 16-Demons
DR6 -0.98 dB -8.55 dB 4:06 17-The Outsiders

Number of tracks: 3
Official DR value: DR5

Samplerate: 44100 Hz
Channels: 2
Bits per sample: 16
Bitrate: 974 kbps
Codec: FLAC

Statistics for: 06-Dirge
Number of samples: 15075144
Duration: 5:42
Left Right

Peak Value: -0.10 dB -0.10 dB
Avg RMS: -10.59 dB -10.07 dB
DR channel: 7.42 dB 6.57 dB

Official DR Value: DR7

Samplerate: 44100 Hz
Channels: 2
Bits per sample: 16
Bitrate: 974 kbps
Codec: FLAC

Analyzed: Editors / 100 Hits - 2000s Anthems (CD 1) (1) Hepburn / 100 Hits - 2000s Anthems (CD 1) (2)

DR Peak RMS Duration Track

DR5 -1.63 dB -8.20 dB 4:02 02-Smokers Outside the Hospital Doors
DR7 -0.10 dB -8.73 dB 3:04 08-Deep Deep Down

Number of tracks: 2
Official DR value: DR6

Samplerate: 44100 Hz
Channels: 2
Bits per sample: 16
Bitrate: 974 kbps
Codec: FLAC

Analyzed: Kosheen / 100 Hits - 2000s Anthems (CD 1) (1) Kurt Nilsen / 100 Hits - 2000s Anthems (CD 1) (2) Len / 100 Hits - 2000s Anthems (CD 1) (3)

DR Peak RMS Duration Track

DR6 -1.11 dB -8.40 dB 4:13 05-Hide U
DR6 -1.19 dB -8.95 dB 4:10 14-She's So High
DR9 -0.10 dB -10.51 dB 4:24 20-Cryptik Souls Crew

Number of tracks: 3
Official DR value: DR7

Samplerate: 44100 Hz
Channels: 2
Bits per sample: 16
Bitrate: 974 kbps
Codec: FLAC

Statistics for: 15-Amazed
Number of samples: 10643388
Duration: 4:01
Left Right

Peak Value: -0.72 dB -0.10 dB
Avg RMS: -10.57 dB -12.57 dB
DR channel: 7.82 dB 10.37 dB

Official DR Value: DR9

Samplerate: 44100 Hz
Channels: 2
Bits per sample: 16
Bitrate: 974 kbps
Codec: FLAC

Statistics for: 04-Singin' in the Rain
Number of samples: 5538372
Duration: 2:06
Left Right

Peak Value: -1.56 dB -1.60 dB
Avg RMS: -10.58 dB -10.15 dB
DR channel: 7.59 dB 7.02 dB

Official DR Value: DR7

Samplerate: 44100 Hz
Channels: 2
Bits per sample: 16
Bitrate: 974 kbps
Codec: FLAC

Analyzed: Reef / 100 Hits - 2000s Anthems (CD 1) (1) Simply Red / 100 Hits - 2000s Anthems (CD 1) (2)

DR Peak RMS Duration Track

DR5 -1.22 dB -7.94 dB 3:58 03-Set the Record Straight
DR7 -0.10 dB -10.11 dB 5:06 19-You Make Me Feel Brand New

Number of tracks: 2
Official DR value: DR6

Samplerate: 44100 Hz
Channels: 2
Bits per sample: 16
Bitrate: 974 kbps
Codec: FLAC

Statistics for: 13-Meant to Live
Number of samples: 8902320
Duration: 3:22
Left Right

Peak Value: -1.57 dB -1.63 dB
Avg RMS: -7.46 dB -7.47 dB
DR channel: 4.66 dB 4.59 dB

Official DR Value: DR5

Samplerate: 44100 Hz
Channels: 2
Bits per sample: 16
Bitrate: 974 kbps
Codec: FLAC

Analyzed: The Calling / 100 Hits - 2000s Anthems (CD 1) (1) The Hoosiers / 100 Hits - 2000s Anthems (CD 1) (2)

DR Peak RMS Duration Track

DR7 -1.16 dB -9.20 dB 3:28 09-Wherever You Will Go
DR6 -1.11 dB -8.48 dB 4:00 10-Cops and Robbers

Number of tracks: 2
Official DR value: DR6

Samplerate: 44100 Hz
Channels: 2
Bits per sample: 16
Bitrate: 974 kbps
Codec: FLAC

Analyzed: The Zutons / 100 Hits - 2000s Anthems (CD 1) (1) Toploader / 100 Hits - 2000s Anthems (CD 1) (2) Wheatus / 100 Hits - 2000s Anthems (CD 1) (3)

DR Peak RMS Duration Track

DR6 -0.48 dB -8.30 dB 2:56 01-You Will You Won't
DR7 -0.29 dB -8.60 dB 3:52 07-Dancing in the Moonlight
DR7 -1.07 dB -9.15 dB 3:28 11-A Little Respect

Number of tracks: 3
Official DR value: DR7

Samplerate: 44100 Hz
Channels: 2
Bits per sample: 16
Bitrate: 974 kbps
Codec: FLAC

[CUETools log; Date: 04.09.2015 13:31:41; Version: 2.1.4]
[CTDB TOCID: vDEmBJFIvF37IDUBJtqBAs4ZoWk-] found.
Track | CTDB Status
1 | (3/3) Accurately ripped
2 | (3/3) Accurately ripped
3 | (3/3) Accurately ripped
4 | (3/3) Accurately ripped
5 | (3/3) Accurately ripped
6 | (3/3) Accurately ripped
7 | (3/3) Accurately ripped
8 | (3/3) Accurately ripped
9 | (3/3) Accurately ripped
10 | (3/3) Accurately ripped
11 | (3/3) Accurately ripped
12 | (3/3) Accurately ripped
13 | (3/3) Accurately ripped
14 | (3/3) Accurately ripped
15 | (3/3) Accurately ripped
16 | (3/3) Accurately ripped
17 | (3/3) Accurately ripped
18 | (3/3) Accurately ripped
19 | (3/3) Accurately ripped
20 | (3/3) Accurately ripped
[AccurateRip ID: 0035632b-0312c298-0e11db14] disk not present in database.

Track Peak [ CRC32 ] [W/O NULL] [ LOG ]
-- 98,8 [302D6A33] [3D9A963A]
01 94,6 [448A1503] [E508221F] CRC32
02 82,8 [42D8F122] [7922EAF3] CRC32
03 86,8 [A05B02D3] [33030615] CRC32
04 83,5 [C6AD704F] [C246A105] CRC32
05 88,0 [0E1515FF] [A1533108] CRC32
06 98,8 03D3270 [93BE0C0C] CRC32
07 96,6 [8DD84455] [DC502B39] CRC32
08 98,8 [67ADE783] 37EE895 CRC32
09 87,4 [0C0FBA3D] [45C7B14F] CRC32
10 88,0 [EEE6F7B0] [91736F89] CRC32
11 88,3 [6263C500] [5D03D793] CRC32
12 69,8 [201F88D6] [E18DAC9C] CRC32
13 83,4 [3A90A46F] 84F0213 CRC32
14 87,2 [9B16FAA9] 95F9F56 CRC32
15 98,8 [E9240808] [51B8CF27] CRC32
16 98,8 [4794DA1F] [3BB16D26] CRC32
17 89,3 [39BF710A] [78BBA5C4] CRC32
18 94,7 [6F2B536D] [203AD980] CRC32
19 98,8 [F18F3A1C] 884C514 CRC32
20 98,8 52E2AD2 [0343C91A] CRC32

VA - 100 Hits: 2000s Anthems (2014)

Tracklist CD2:

01. Jagged Edge - Where the Party At (3:24)
02. J-Kwon - Tipsy (3:31)
03. Public Domain - Rock Da Funky Beats (3:43)
04. Wu-Tang Clan - Gravel Pit (3:49)
05. Next - Wifey (4:03)
06. Black Legend - You See the Trouble With Me (4:54)
07. ABS feat. Nodesha - Miss Perfect (3:38)
08. 3SL - Touch Me Tease Me (3:47)
09. Beginerz - Reckless Girl (2:59)
10. Sasha feat. Emerson - Scorchio (3:35)
11. Groove Armada - Superstylin' (3:58)
12. Faithless - We Come 1 (3:43)
13. Rogue Traders - Voodoo Child (3:33)
14. DJ Ötzi - Hey Baby (Uhh Ahh) (3:37)
15. DJ Sammy - The Boys of Summer (4:53)
16. Phats & Small - This Time Around (3:27)
17. Panjabi MC - Mundian to Bach Ke (4:04)
18. Par-T-One vs. INXS - I'm So Crazy (3:48)
19. Made In London - Dirty Water (4:36)
20. Roger Sanchez - I Never Knew (6:52)

Exact Audio Copy V1.1 from 23. June 2015

EAC extraction logfile from 16. August 2015, 10:14

Various Artists / 100 Hits - 2000s Anthems

Used drive : PIONEER BD-RW BDR-206 Adapter: 1 ID: 0

Read mode : Secure
Utilize accurate stream : Yes
Defeat audio cache : Yes
Make use of C2 pointers : No

Read offset correction

: 667
Overread into Lead-In and Lead-Out : No
Fill up missing offset samples with silence : Yes
Delete leading and trailing silent blocks : No
Null samples used in CRC calculations : Yes
Used interface
: Native Win32 interface for Win NT & 2000
Gap handling
: Appended to previous track

Used output format : User Defined Encoder
Selected bitrate : 1024 kBit/s
Quality : High
Add ID3 tag : No
Command line compressor : C:\Program Files (x86)\Exact Audio Copy\Flac\flac.exe
Additional command line options : -8 -V -T "artist=%artist%" -T "title=%title%" -T "album=%albumtitle%" -T "date=%year%" -T "tracknumber=%tracknr%" -T "genre=%genre%" %source%

TOC of the extracted CD Track | Start | Length | Start sector | End sector
--1 | 0:00.00 | 3:24.12 | 0 | 15311 2 | 3:24.12 | 3:30.57 | 15312 | 31118 3 | 6:54.69 | 3:42.51 | 31119 | 47819 4 | 10:37.45 | 3:49.24 | 47820 | 65018 5 | 14:26.69 | 4:03.17 | 65019 | 83260 6 | 18:30.11 | 4:54.19 | 83261 | 105329 7 | 23:24.30 | 3:37.44 | 105330 | 121648 8 | 27:01.74 | 3:46.39 | 121649 | 138637 9 | 30:48.38 | 2:59.05 | 138638 | 152067
10 | 33:47.43 | 3:35.19 | 152068 | 168211
11 | 37:22.62 | 3:57.65 | 168212 | 186051
12 | 41:20.52 | 3:43.22 | 186052 | 202798
13 | 45:03.74 | 3:32.50 | 202799 | 218748
14 | 48:36.49 | 3:36.66 | 218749 | 235014
15 | 52:13.40 | 4:53.24 | 235015 | 257013
16 | 57:06.64 | 3:27.11 | 257014 | 272549
17 | 60:34.00 | 4:04.04 | 272550 | 290853
18 | 64:38.04 | 3:48.21 | 290854 | 307974
19 | 68:26.25 | 4:35.53 | 307975 | 328652
20 | 73:02.03 | 6:52.01 | 328653 | 359553

Track 1 Filename D:\EAC rips\VA - 100 Hits - 2000s Anthems (2014)(Flac+.cue)\CD2\01. Jagged Edge - Where the Party At.wav Pre-gap length 0:00:02.00 Peak level 98.8 %
Extraction speed 4.1 X
Track quality 99.9 %
Test CRC E7574767
Copy CRC E7574767
Track not present in AccurateRip database
Copy OK

Track 2 Filename D:\EAC rips\VA - 100 Hits - 2000s Anthems (2014)(Flac+.cue)\CD2\02. J-Kwon - Tipsy.wav Pre-gap length 0:00:00.34 Peak level 98.8 %
Extraction speed 5.0 X
Track quality 100.0 %
Test CRC 89460833
Copy CRC 89460833
Track not present in AccurateRip database
Copy OK

Track 3 Filename D:\EAC rips\VA - 100 Hits - 2000s Anthems (2014)(Flac+.cue)\CD2\03. Public Domain - Rock Da Funky Beats.wav Pre-gap length 0:00:00.34 Peak level 98.8 %
Extraction speed 5.3 X
Track quality 100.0 %
Test CRC D7185E12
Copy CRC D7185E12
Track not present in AccurateRip database
Copy OK

Track 4 Filename D:\EAC rips\VA - 100 Hits - 2000s Anthems (2014)(Flac+.cue)\CD2\04. Wu-Tang Clan - Gravel Pit.wav Pre-gap length 0:00:00.34 Peak level 98.8 %
Extraction speed 5.7 X
Track quality 100.0 %
Test CRC 45B396C3
Copy CRC 45B396C3
Track not present in AccurateRip database
Copy OK

Track 5 Filename D:\EAC rips\VA - 100 Hits - 2000s Anthems (2014)(Flac+.cue)\CD2\05. Next - Wifey.wav Pre-gap length 0:00:00.34 Peak level 98.8 %
Extraction speed 6.0 X
Track quality 100.0 %
Test CRC 9798C862
Copy CRC 9798C862
Track not present in AccurateRip database
Copy OK

Track 6 Filename D:\EAC rips\VA - 100 Hits - 2000s Anthems (2014)(Flac+.cue)\CD2\06. Black Legend - You See the Trouble With Me.wav Pre-gap length 0:00:00.34 Peak level 82.2 %
Extraction speed 6.5 X
Track quality 100.0 %
Test CRC 33423062
Copy CRC 33423062
Track not present in AccurateRip database
Copy OK

Track 7 Filename D:\EAC rips\VA - 100 Hits - 2000s Anthems (2014)(Flac+.cue)\CD2\07. ABS feat. Nodesha - Miss Perfect.wav Pre-gap length 0:00:00.34 Peak level 74.5 %
Extraction speed 6.5 X
Track quality 100.0 %
Test CRC E519F64A
Copy CRC E519F64A
Track not present in AccurateRip database
Copy OK

Track 8 Filename D:\EAC rips\VA - 100 Hits - 2000s Anthems (2014)(Flac+.cue)\CD2\08. 3SL - Touch Me Tease Me.wav Pre-gap length 0:00:00.34 Peak level 76.7 %
Extraction speed 6.8 X
Track quality 100.0 %
Test CRC 4260E158
Copy CRC 4260E158
Track not present in AccurateRip database
Copy OK

Track 9 Filename D:\EAC rips\VA - 100 Hits - 2000s Anthems (2014)(Flac+.cue)\CD2\09. Beginerz - Reckless Girl.wav Pre-gap length 0:00:00.34 Peak level 98.8 %
Extraction speed 6.7 X
Track quality 100.0 %
Test CRC 77AB81CD
Copy CRC 77AB81CD
Track not present in AccurateRip database
Copy OK

Track 10 Filename D:\EAC rips\VA - 100 Hits - 2000s Anthems (2014)(Flac+.cue)\CD2\10. Sasha feat. Emerson - Scorchio.wav Pre-gap length 0:00:00.34 Peak level 98.8 %
Extraction speed 7.1 X
Track quality 100.0 %
Test CRC 10E9465F
Copy CRC 10E9465F
Track not present in AccurateRip database
Copy OK

Track 11 Filename D:\EAC rips\VA - 100 Hits - 2000s Anthems (2014)(Flac+.cue)\CD2\11. Groove Armada - Superstylin'.wav Pre-gap length 0:00:00.34 Peak level 98.8 %
Extraction speed 7.4 X
Track quality 100.0 %
Test CRC DCD28EB6
Copy CRC DCD28EB6
Track not present in AccurateRip database
Copy OK

Track 12 Filename D:\EAC rips\VA - 100 Hits - 2000s Anthems (2014)(Flac+.cue)\CD2\12. Faithless - We Come 1.wav Pre-gap length 0:00:00.34 Peak level 98.8 %
Extraction speed 7.4 X
Track quality 100.0 %
Test CRC 5BBF1A74
Copy CRC 5BBF1A74
Track not present in AccurateRip database
Copy OK

Track 13 Filename D:\EAC rips\VA - 100 Hits - 2000s Anthems (2014)(Flac+.cue)\CD2\13. Rogue Traders - Voodoo Child.wav Pre-gap length 0:00:00.34 Peak level 98.8 %
Extraction speed 7.6 X
Track quality 100.0 %
Test CRC F704568D
Copy CRC F704568D
Track not present in AccurateRip database
Copy OK

Track 14 Filename D:\EAC rips\VA - 100 Hits - 2000s Anthems (2014)(Flac+.cue)\CD2\14. DJ Ötzi - Hey Baby (Uhh Ahh).wav Pre-gap length 0:00:00.34 Peak level 93.9 %
Extraction speed 7.7 X
Track quality 100.0 %
Test CRC 5DB8AD82
Copy CRC 5DB8AD82
Track not present in AccurateRip database
Copy OK

Track 15 Filename D:\EAC rips\VA - 100 Hits - 2000s Anthems (2014)(Flac+.cue)\CD2\15. DJ Sammy - The Boys of Summer.wav Pre-gap length 0:00:00.34 Peak level 98.8 %
Extraction speed 8.2 X
Track quality 100.0 %
Test CRC 81DEF833
Copy CRC 81DEF833
Track not present in AccurateRip database
Copy OK

Track 16 Filename D:\EAC rips\VA - 100 Hits - 2000s Anthems (2014)(Flac+.cue)\CD2\16. Phats & Small - This Time Around.wav Pre-gap length 0:00:00.33 Peak level 98.8 %
Extraction speed 7.0 X
Track quality 99.9 %
Test CRC 001E543B
Copy CRC 001E543B
Track not present in AccurateRip database
Copy OK

Track 17 Filename D:\EAC rips\VA - 100 Hits - 2000s Anthems (2014)(Flac+.cue)\CD2\17. Panjabi MC - Mundian to Bach Ke.wav Pre-gap length 0:00:00.34 Peak level 98.8 %
Extraction speed 8.3 X
Track quality 100.0 %
Test CRC DEE1712E
Copy CRC DEE1712E
Track not present in AccurateRip database
Copy OK

Track 18 Filename D:\EAC rips\VA - 100 Hits - 2000s Anthems (2014)(Flac+.cue)\CD2\18. Par-T-One vs. INXS - I'm So Crazy.wav Pre-gap length 0:00:00.34 Peak level 91.1 %
Extraction speed 8.4 X
Track quality 100.0 %
Test CRC 5C52DAC4
Copy CRC 5C52DAC4
Track not present in AccurateRip database
Copy OK

Track 19 Filename D:\EAC rips\VA - 100 Hits - 2000s Anthems (2014)(Flac+.cue)\CD2\19. Made In London - Dirty Water.wav Pre-gap length 0:00:00.34 Peak level 98.8 %
Extraction speed 8.9 X
Track quality 100.0 %
Test CRC DD556053
Copy CRC DD556053
Track not present in AccurateRip database
Copy OK

Track 20 Filename D:\EAC rips\VA - 100 Hits - 2000s Anthems (2014)(Flac+.cue)\CD2\20. Roger Sanchez - I Never Knew.wav Pre-gap length 0:00:00.34 Peak level 98.8 %
Extraction speed 8.8 X
Track quality 99.9 %
Test CRC 52EC7433
Copy CRC 52EC7433
Track not present in AccurateRip database
Copy OK

None of the tracks are present in the AccurateRip database

No errors occurred

End of status report

- CUETools DB Plugin V2.1.6

[CTDB TOCID: oeyGuXHEErrEkGQdttZW.szIYw8-] found
Submit result: oeyGuXHEErrEkGQdttZW.szIYw8- has been confirmed
Track | CTDB Status
1 | (2/2) Accurately ripped
2 | (2/2) Accurately ripped
3 | (2/2) Accurately ripped
4 | (2/2) Accurately ripped
5 | (2/2) Accurately ripped
6 | (2/2) Accurately ripped
7 | (2/2) Accurately ripped
8 | (2/2) Accurately ripped
9 | (2/2) Accurately ripped
10 | (2/2) Accurately ripped
11 | (2/2) Accurately ripped
12 | (2/2) Accurately ripped
13 | (2/2) Accurately ripped
14 | (2/2) Accurately ripped
15 | (2/2) Accurately ripped
16 | (2/2) Accurately ripped
17 | (2/2) Accurately ripped
18 | (2/2) Accurately ripped
19 | (2/2) Accurately ripped
20 | (2/2) Accurately ripped

==== Log checksum A8B0537ABB50AEF66F6EAE83B7B24F29DB2AE5E2B52301DC34016AE929C0174A ====

foobar2000 1.2.9 / Dynamic Range Meter 1.1.1
log date: 2015-09-04 13:32:01

Analyzed: ABS feat. Nodesha / 100 Hits - 2000s Anthems (1) Beginerz / 100 Hits - 2000s Anthems (2)

DR Peak RMS Duration Track

DR6 -2.55 dB -9.44 dB 3:38 07-Miss Perfect
DR7 -0.10 dB -8.02 dB 2:59 09-Reckless Girl

Number of tracks: 2
Official DR value: DR6

Samplerate: 44100 Hz
Channels: 2
Bits per sample: 16
Bitrate: 983 kbps
Codec: FLAC

Analyzed: Black Legend / 100 Hits - 2000s Anthems (1) DJ Otzi / 100 Hits - 2000s Anthems (2) DJ Sammy / 100 Hits - 2000s Anthems (3)

DR Peak RMS Duration Track

DR6 -1.70 dB -8.62 dB 4:54 06-You See the Trouble With Me
DR4 -0.54 dB -6.34 dB 3:37 14-Hey Baby (Uhh Ahh)
DR7 -0.10 dB -8.21 dB 4:53 15-The Boys of Summer

Number of tracks: 3
Official DR value: DR5

Samplerate: 44100 Hz
Channels: 2
Bits per sample: 16
Bitrate: 983 kbps
Codec: FLAC

Statistics for: 12-We Come 1
Number of samples: 9847236
Duration: 3:43
Left Right

Peak Value: -0.10 dB -0.10 dB
Avg RMS: -8.52 dB -8.26 dB
DR channel: 6.33 dB 5.98 dB

Official DR Value: DR6

Samplerate: 44100 Hz
Channels: 2
Bits per sample: 16
Bitrate: 983 kbps
Codec: FLAC

Statistics for: 11-Superstylin'
Number of samples: 10489920
Duration: 3:58
Left Right

Peak Value: -0.10 dB -0.10 dB
Avg RMS: -7.44 dB -7.85 dB
DR channel: 6.15 dB 6.59 dB

Official DR Value: DR6

Samplerate: 44100 Hz
Channels: 2
Bits per sample: 16
Bitrate: 983 kbps
Codec: FLAC

Analyzed: Jagged Edge / 100 Hits - 2000s Anthems (1) J-Kwon / 100 Hits - 2000s Anthems (2) Made In London / 100 Hits - 2000s Anthems (3)

DR Peak RMS Duration Track

DR7 -0.10 dB -8.44 dB 3:24 01-Where the Party At
DR7 -0.10 dB -8.07 dB 3:31 02-Tipsy
DR8 -0.10 dB -10.87 dB 4:36 19-Dirty Water

Number of tracks: 3
Official DR value: DR7

Samplerate: 44100 Hz
Channels: 2
Bits per sample: 16
Bitrate: 983 kbps
Codec: FLAC

Analyzed: Next / 100 Hits - 2000s Anthems (1) Panjabi MC / 100 Hits - 2000s Anthems (2) Par-T-One vs. INXS / 100 Hits - 2000s Anthems (3)

DR Peak RMS Duration Track

DR9 -0.10 dB -10.47 dB 4:03 05-Wifey
DR8 -0.10 dB -9.93 dB 4:04 17-Mundian to Bach Ke
DR6 -0.80 dB -7.60 dB 3:48 18-I'm So Crazy

Number of tracks: 3
Official DR value: DR8

Samplerate: 44100 Hz
Channels: 2
Bits per sample: 16
Bitrate: 983 kbps
Codec: FLAC

Statistics for: 16-This Time Around
Number of samples: 9135168
Duration: 3:27
Left Right

Peak Value: -0.10 dB -0.10 dB
Avg RMS: -7.67 dB -8.16 dB
DR channel: 5.68 dB 6.31 dB

Official DR Value: DR6

Samplerate: 44100 Hz
Channels: 2
Bits per sample: 16
Bitrate: 983 kbps
Codec: FLAC

Analyzed: Public Domain / 100 Hits - 2000s Anthems (1) Roger Sanchez / 100 Hits - 2000s Anthems (2)

DR Peak RMS Duration Track

DR7 -0.10 dB -8.93 dB 3:43 03-Rock Da Funky Beats
DR6 -0.10 dB -7.30 dB 6:52 20-I Never Knew

Number of tracks: 2
Official DR value: DR6

Samplerate: 44100 Hz
Channels: 2
Bits per sample: 16
Bitrate: 983 kbps
Codec: FLAC

Statistics for: 13-Voodoo Child
Number of samples: 9378600
Duration: 3:33
Left Right

Peak Value: -0.10 dB -0.10 dB
Avg RMS: -8.47 dB -7.97 dB
DR channel: 6.68 dB 6.20 dB

Official DR Value: DR6

Samplerate: 44100 Hz
Channels: 2
Bits per sample: 16
Bitrate: 983 kbps
Codec: FLAC

Statistics for: 10-Scorchio
Number of samples: 9492672
Duration: 3:35
Left Right

Peak Value: -0.10 dB -0.10 dB
Avg RMS: -8.67 dB -9.08 dB
DR channel: 7.58 dB 7.97 dB

Official DR Value: DR8

Samplerate: 44100 Hz
Channels: 2
Bits per sample: 16
Bitrate: 983 kbps
Codec: FLAC

Statistics for: 04-Gravel Pit
Number of samples: 10113012
Duration: 3:49
Left Right

Peak Value: -0.10 dB -0.10 dB
Avg RMS: -8.88 dB -8.72 dB
DR channel: 7.98 dB 7.69 dB

Official DR Value: DR8

Samplerate: 44100 Hz
Channels: 2
Bits per sample: 16
Bitrate: 983 kbps
Codec: FLAC

[CUETools log; Date: 04.09.2015 13:31:59; Version: 2.1.4]
[CTDB TOCID: oeyGuXHEErrEkGQdttZW.szIYw8-] found.
Track | CTDB Status
1 | (3/3) Accurately ripped
2 | (3/3) Accurately ripped
3 | (3/3) Accurately ripped
4 | (3/3) Accurately ripped
5 | (3/3) Accurately ripped
6 | (3/3) Accurately ripped
7 | (3/3) Accurately ripped
8 | (3/3) Accurately ripped
9 | (3/3) Accurately ripped
10 | (3/3) Accurately ripped
11 | (3/3) Accurately ripped
12 | (3/3) Accurately ripped
13 | (3/3) Accurately ripped
14 | (3/3) Accurately ripped
15 | (3/3) Accurately ripped
16 | (3/3) Accurately ripped
17 | (3/3) Accurately ripped
18 | (3/3) Accurately ripped
19 | (3/3) Accurately ripped
20 | (3/3) Accurately ripped
[AccurateRip ID: 0036be3b-0326ea92-1512ba14] disk not present in database.

Track Peak [ CRC32 ] [W/O NULL] [ LOG ]
-- 98,8 [86202F60] 7DE2B3F
01 98,8 [E7574767] [A70C5488] CRC32
02 98,8 [89460833] [D1906715] CRC32
03 98,8 [D7185E12] [54E1316B] CRC32
04 98,8 [45B396C3] [3D0B78CE] CRC32
05 98,8 [9798C862] [05714145] CRC32
06 82,2 [33423062] [2264AD14] CRC32
07 74,5 [E519F64A] [768B9268] CRC32
08 76,7 [4260E158] [048B9811] CRC32
09 98,8 [77AB81CD] BAE81A6 CRC32
10 98,8 [10E9465F] [E39741FF] CRC32
11 98,8 [DCD28EB6] [14B7B578] CRC32
12 98,8 [5BBF1A74] [F31E64E6] CRC32
13 98,8 [F704568D] [86C7470E] CRC32
14 93,9 [5DB8AD82] [47EB801F] CRC32
15 98,8 [81DEF833] [A7895199] CRC32
16 98,8 [001E543B] [D8022A9E] CRC32
17 98,8 [DEE1712E] [D6B9880C] CRC32
18 91,1 [5C52DAC4] [8F3CC6FF] CRC32
19 98,8 [DD556053] [3B321907] CRC32
20 98,8 [52EC7433] [92222FE2] CRC32

VA - 100 Hits: 2000s Anthems (2014)

Tracklist CD3:

01. DJ Sammy - Heaven (3:55)
02. Amerie - 1 Thing (4:02)
03. Charlotte Church - Crazy Chick (3:09)
04. Sandi Thom - I Wish I Was a Punk Rocker (With Flowers in My Hair) (2:35)
05. Mandy Moore - Candy (3:56)
06. Jessica Simpson - Irresistible (3:13)
07. Liza ''Left Eye'' Lopes - The Block Party (4:07)
08. Mary Mary - Shackles (Praise You) (Single Version) (3:05)
09. Toni Braxton - He Wasn't Man Enough (4:23)
10. Heather Small - Proud (3:56)
11. Natasha Bedingfield - I Bruise Easily (3:45)
12. Ciara - Like a Boy (3:59)
13. Sarah Whatmore - When I Lost You (3:27)
14. Jessica Garlick - Come Back (2:55)
15. The Cheeky Girls - Cheeky Song (Touch My Bum) (3:23)
16. Uniting Nations - Out of Touch (2:48)
17. Sunset Strippers - Falling Stars (3:19)
18. Big Brovaz - Nu-Flow (3:21)
19. Faithless - Mass Destruction (Album Version) (3:46)
20. Bomfunk MCs - Freestyler (2:53)

Exact Audio Copy V1.1 from 23. June 2015

EAC extraction logfile from 16. August 2015, 22:04

Various Artists / 100 Hits - 2000s Anthems

Used drive : PIONEER BD-RW BDR-206 Adapter: 1 ID: 0

Read mode : Secure
Utilize accurate stream : Yes
Defeat audio cache : Yes
Make use of C2 pointers : No

Read offset correction

: 667
Overread into Lead-In and Lead-Out : No
Fill up missing offset samples with silence : Yes
Delete leading and trailing silent blocks : No
Null samples used in CRC calculations : Yes
Used interface
: Native Win32 interface for Win NT & 2000
Gap handling
: Appended to previous track

Used output format : User Defined Encoder
Selected bitrate : 1024 kBit/s
Quality : High
Add ID3 tag : No
Command line compressor : C:\Program Files (x86)\Exact Audio Copy\Flac\flac.exe
Additional command line options : -8 -V -T "artist=%artist%" -T "title=%title%" -T "album=%albumtitle%" -T "date=%year%" -T "tracknumber=%tracknr%" -T "genre=%genre%" %source%

TOC of the extracted CD Track | Start | Length | Start sector | End sector
--1 | 0:00.00 | 3:55.11 | 0 | 17635 2 | 3:55.11 | 4:02.03 | 17636 | 35788 3 | 7:57.14 | 3:08.59 | 35789 | 49947 4 | 11:05.73 | 2:34.69 | 49948 | 61566 5 | 13:40.67 | 3:56.07 | 61567 | 79273 6 | 17:36.74 | 3:12.40 | 79274 | 93713 7 | 20:49.39 | 4:07.25 | 93714 | 112263 8 | 24:56.64 | 3:05.10 | 112264 | 126148 9 | 28:01.74 | 4:23.16 | 126149 | 145889
10 | 32:25.15 | 3:55.57 | 145890 | 163571
11 | 36:20.72 | 3:44.48 | 163572 | 180419
12 | 40:05.45 | 3:59.05 | 180420 | 198349
13 | 44:04.50 | 3:27.34 | 198350 | 213908
14 | 47:32.09 | 2:54.68 | 213909 | 227026
15 | 50:27.02 | 3:22.45 | 227027 | 242221
16 | 53:49.47 | 2:47.59 | 242222 | 254805
17 | 56:37.31 | 3:18.55 | 254806 | 269710
18 | 59:56.11 | 3:20.68 | 269711 | 284778
19 | 63:17.04 | 3:46.18 | 284779 | 301746
20 | 67:03.22 | 2:52.47 | 301747 | 314693

Track 1 Filename D:\EAC rips\VA - 100 Hits - 2000s Anthems (2014)(Flac+.cue)\CD3\01. DJ Sammy - Heaven.wav Pre-gap length 0:00:02.00 Peak level 98.8 %
Extraction speed 4.5 X
Track quality 100.0 %
Test CRC E622B97A
Copy CRC E622B97A
Track not present in AccurateRip database
Copy OK

Track 2 Filename D:\EAC rips\VA - 100 Hits - 2000s Anthems (2014)(Flac+.cue)\CD3\02. Amerie - 1 Thing.wav Pre-gap length 0:00:01.74 Peak level 91.1 %
Extraction speed 4.4 X
Track quality 99.9 %
Test CRC 4C393828
Copy CRC 4C393828
Track not present in AccurateRip database
Copy OK

Track 3 Filename D:\EAC rips\VA - 100 Hits - 2000s Anthems (2014)(Flac+.cue)\CD3\03. Charlotte Church - Crazy Chick.wav Pre-gap length 0:00:02.00 Peak level 98.3 %
Extraction speed 5.1 X
Track quality 100.0 %
Test CRC 0A45CFBA
Copy CRC 0A45CFBA
Track not present in AccurateRip database
Copy OK

Track 4 Filename D:\EAC rips\VA - 100 Hits - 2000s Anthems (2014)(Flac+.cue)\CD3\04. Sandi Thom - I Wish I Was a Punk Rocker (With Flowers in My Hair).wav Pre-gap length 0:00:01.74 Peak level 98.8 %
Extraction speed 5.1 X
Track quality 100.0 %
Test CRC 1BEBC311
Copy CRC 1BEBC311
Track not present in AccurateRip database
Copy OK

Track 5 Filename D:\EAC rips\VA - 100 Hits - 2000s Anthems (2014)(Flac+.cue)\CD3\05. Mandy Moore - Candy.wav Pre-gap length 0:00:01.74 Peak level 79.8 %
Extraction speed 5.8 X
Track quality 100.0 %
Test CRC 0A8279F8
Copy CRC 0A8279F8
Track not present in AccurateRip database
Copy OK

Track 6 Filename D:\EAC rips\VA - 100 Hits - 2000s Anthems (2014)(Flac+.cue)\CD3\06. Jessica Simpson - Irresistible.wav Pre-gap length 0:00:01.74 Peak level 84.6 %
Extraction speed 5.1 X
Track quality 99.9 %
Test CRC FEFFA777
Copy CRC FEFFA777
Track not present in AccurateRip database
Copy OK

Track 7 Filename D:\EAC rips\VA - 100 Hits - 2000s Anthems (2014)(Flac+.cue)\CD3\07. Liza ''Left Eye'' Lopes - The Block Party.wav Pre-gap length 0:00:01.74 Peak level 98.8 %
Extraction speed 5.6 X
Track quality 99.9 %
Test CRC A49C1B6D
Copy CRC A49C1B6D
Track not present in AccurateRip database
Copy OK

Track 8 Filename D:\EAC rips\VA - 100 Hits - 2000s Anthems (2014)(Flac+.cue)\CD3\08. Mary Mary - Shackles (Praise You) (Single Version).wav Pre-gap length 0:00:02.00 Peak level 91.1 %
Extraction speed 6.3 X
Track quality 100.0 %
Test CRC F0CE9F2C
Copy CRC F0CE9F2C
Track not present in AccurateRip database
Copy OK

Track 9 Filename D:\EAC rips\VA - 100 Hits - 2000s Anthems (2014)(Flac+.cue)\CD3\09. Toni Braxton - He Wasn't Man Enough.wav Pre-gap length 0:00:01.74 Peak level 82.4 %
Extraction speed 6.9 X
Track quality 100.0 %
Test CRC 9B6BDD60
Copy CRC 9B6BDD60
Track not present in AccurateRip database
Copy OK

Track 10 Filename D:\EAC rips\VA - 100 Hits - 2000s Anthems (2014)(Flac+.cue)\CD3\10. Heather Small - Proud.wav Pre-gap length 0:00:01.74 Peak level 98.8 %
Extraction speed 7.0 X
Track quality 100.0 %
Test CRC 7B779AE7
Copy CRC 7B779AE7
Track not present in AccurateRip database
Copy OK

Track 11 Filename D:\EAC rips\VA - 100 Hits - 2000s Anthems (2014)(Flac+.cue)\CD3\11. Natasha Bedingfield - I Bruise Easily.wav Pre-gap length 0:00:01.74 Peak level 98.8 %
Extraction speed 7.1 X
Track quality 100.0 %
Test CRC 82057F40
Copy CRC 82057F40
Track not present in AccurateRip database
Copy OK

Track 12 Filename D:\EAC rips\VA - 100 Hits - 2000s Anthems (2014)(Flac+.cue)\CD3\12. Ciara - Like a Boy.wav Pre-gap length 0:00:01.74 Peak level 87.8 %
Extraction speed 7.3 X
Track quality 100.0 %
Test CRC D25507DF
Copy CRC D25507DF
Track not present in AccurateRip database
Copy OK

Track 13 Filename D:\EAC rips\VA - 100 Hits - 2000s Anthems (2014)(Flac+.cue)\CD3\13. Sarah Whatmore - When I Lost You.wav Pre-gap length 0:00:01.74 Peak level 98.8 %
Extraction speed 6.3 X
Track quality 99.9 %
Test CRC E496ED63
Copy CRC E496ED63
Track not present in AccurateRip database
Copy OK

Track 14 Filename D:\EAC rips\VA - 100 Hits - 2000s Anthems (2014)(Flac+.cue)\CD3\14. Jessica Garlick - Come Back.wav Pre-gap length 0:00:01.74 Peak level 98.8 %
Extraction speed 7.3 X
Track quality 100.0 %
Test CRC 684DC0D7
Copy CRC 684DC0D7
Track not present in AccurateRip database
Copy OK

Track 15 Filename D:\EAC rips\VA - 100 Hits - 2000s Anthems (2014)(Flac+.cue)\CD3\15. The Cheeky Girls - Cheeky Song (Touch My Bum).wav Pre-gap length 0:00:01.74 Peak level 98.8 %
Extraction speed 7.7 X
Track quality 100.0 %
Test CRC E0C30982
Copy CRC E0C30982
Track not present in AccurateRip database
Copy OK

Track 16 Filename D:\EAC rips\VA - 100 Hits - 2000s Anthems (2014)(Flac+.cue)\CD3\16. Uniting Nations - Out of Touch.wav Pre-gap length 0:00:01.74 Peak level 90.1 %
Extraction speed 7.4 X
Track quality 100.0 %
Test CRC 3862C7CA
Copy CRC 3862C7CA
Track not present in AccurateRip database
Copy OK

Track 17 Filename D:\EAC rips\VA - 100 Hits - 2000s Anthems (2014)(Flac+.cue)\CD3\17. Sunset Strippers - Falling Stars.wav Pre-gap length 0:00:01.74 Peak level 90.4 %
Extraction speed 8.0 X
Track quality 100.0 %
Test CRC E227F8D4
Copy CRC E227F8D4
Track not present in AccurateRip database
Copy OK

Track 18 Filename D:\EAC rips\VA - 100 Hits - 2000s Anthems (2014)(Flac+.cue)\CD3\18. Big Brovaz - Nu-Flow.wav Pre-gap length 0:00:01.73 Peak level 98.8 %
Extraction speed 8.1 X
Track quality 100.0 %
Test CRC 1B1B5AE9
Copy CRC 1B1B5AE9
Track not present in AccurateRip database
Copy OK

Track 19 Filename D:\EAC rips\VA - 100 Hits - 2000s Anthems (2014)(Flac+.cue)\CD3\19. Faithless - Mass Destruction (Album Version).wav Pre-gap length 0:00:01.74 Peak level 98.8 %
Extraction speed 8.2 X
Track quality 100.0 %
Test CRC F2EB994E
Copy CRC F2EB994E
Track not present in AccurateRip database
Copy OK

Track 20 Filename D:\EAC rips\VA - 100 Hits - 2000s Anthems (2014)(Flac+.cue)\CD3\20. Bomfunk MCs - Freestyler.wav Pre-gap length 0:00:01.74 Peak level 98.8 %
Extraction speed 8.2 X
Track quality 100.0 %
Test CRC EC6C9179
Copy CRC EC6C9179
Track not present in AccurateRip database
Copy OK

None of the tracks are present in the AccurateRip database

No errors occurred

End of status report

- CUETools DB Plugin V2.1.6

[CTDB TOCID: ZTYDh7nFu3CojNBEtz9wA00Id8U-] found
Submit result: ZTYDh7nFu3CojNBEtz9wA00Id8U- has been confirmed
Track | CTDB Status
1 | (2/2) Accurately ripped
2 | (2/2) Accurately ripped
3 | (2/2) Accurately ripped
4 | (2/2) Accurately ripped
5 | (2/2) Accurately ripped
6 | (2/2) Accurately ripped
7 | (2/2) Accurately ripped
8 | (2/2) Accurately ripped
9 | (2/2) Accurately ripped
10 | (2/2) Accurately ripped
11 | (2/2) Accurately ripped
12 | (2/2) Accurately ripped
13 | (2/2) Accurately ripped
14 | (2/2) Accurately ripped
15 | (2/2) Accurately ripped
16 | (2/2) Accurately ripped
17 | (2/2) Accurately ripped
18 | (2/2) Accurately ripped
19 | (2/2) Accurately ripped
20 | (2/2) Accurately ripped

==== Log checksum 9EE1879E2A731658864657FC6652FE0FC346E7351E048882CFD153C0776435DE ====

foobar2000 1.2.9 / Dynamic Range Meter 1.1.1
log date: 2015-09-04 13:32:25

Analyzed: Amerie / 100 Hits - 2000s Anthems (1) Big Brovaz / 100 Hits - 2000s Anthems (2) Bomfunk MCs / 100 Hits - 2000s Anthems (3)

DR Peak RMS Duration Track

DR6 -0.80 dB -8.79 dB 4:02 02-1 Thing
DR8 -0.10 dB -9.33 dB 3:21 18-Nu-Flow
DR6 -0.10 dB -7.37 dB 2:53 20-Freestyler

Number of tracks: 3
Official DR value: DR7

Samplerate: 44100 Hz
Channels: 2
Bits per sample: 16
Bitrate: 997 kbps
Codec: FLAC

Analyzed: Charlotte Church / 100 Hits - 2000s Anthems (1) Ciara / 100 Hits - 2000s Anthems (2)

DR Peak RMS Duration Track

DR5 -0.15 dB -6.95 dB 3:09 03-Crazy Chick
DR5 -1.13 dB -8.14 dB 3:59 12-Like a Boy

Number of tracks: 2
Official DR value: DR5

Samplerate: 44100 Hz
Channels: 2
Bits per sample: 16
Bitrate: 997 kbps
Codec: FLAC

Analyzed: DJ Sammy / 100 Hits - 2000s Anthems (1) Faithless / 100 Hits - 2000s Anthems (2)

DR Peak RMS Duration Track

DR6 -0.10 dB -7.34 dB 3:55 01-Heaven
DR8 -0.10 dB -9.69 dB 3:46 19-Mass Destruction (Album Version)

Number of tracks: 2
Official DR value: DR7

Samplerate: 44100 Hz
Channels: 2
Bits per sample: 16
Bitrate: 997 kbps
Codec: FLAC

Analyzed: Heather Small / 100 Hits - 2000s Anthems (1) Jessica Garlick / 100 Hits - 2000s Anthems (2)

DR Peak RMS Duration Track

DR6 -0.10 dB -9.06 dB 3:56 10-Proud
DR7 -0.10 dB -10.12 dB 2:55 14-Come Back

Number of tracks: 2
Official DR value: DR7

Samplerate: 44100 Hz
Channels: 2
Bits per sample: 16
Bitrate: 997 kbps
Codec: FLAC

Analyzed: Jessica Simpson / 100 Hits - 2000s Anthems (1) Liza ''Left Eye'' Lopes / 100 Hits - 2000s Anthems (2)

DR Peak RMS Duration Track

DR5 -1.44 dB -8.83 dB 3:13 06-Irresistible
DR7 -0.10 dB -9.03 dB 4:07 07-The Block Party

Number of tracks: 2
Official DR value: DR6

Samplerate: 44100 Hz
Channels: 2
Bits per sample: 16
Bitrate: 997 kbps
Codec: FLAC

Analyzed: Mandy Moore / 100 Hits - 2000s Anthems (1) Mary Mary / 100 Hits - 2000s Anthems (2) Natasha Bedingfield / 100 Hits - 2000s Anthems (3)

DR Peak RMS Duration Track

DR5 -1.95 dB -9.58 dB 3:56 05-Candy
DR6 -0.81 dB -8.55 dB 3:05 08-Shackles (Praise You) (Single Version)
DR9 -0.10 dB -10.58 dB 3:45 11-I Bruise Easily

Number of tracks: 3
Official DR value: DR7

Samplerate: 44100 Hz
Channels: 2
Bits per sample: 16
Bitrate: 997 kbps
Codec: FLAC

Analyzed: Sandi Thom / 100 Hits - 2000s Anthems (1) Sarah Whatmore / 100 Hits - 2000s Anthems (2) Sunset Strippers / 100 Hits - 2000s Anthems (3)

DR Peak RMS Duration Track

DR7 -0.10 dB -9.15 dB 2:35 04-I Wish I Was a Punk Rocker (With Flowers in My Hair)
DR6 -0.10 dB -7.62 dB 3:27 13-When I Lost You
DR7 -0.87 dB -8.73 dB 3:19 17-Falling Stars

Number of tracks: 3
Official DR value: DR7

Samplerate: 44100 Hz
Channels: 2
Bits per sample: 16
Bitrate: 997 kbps
Codec: FLAC

Statistics for: 15-Cheeky Song (Touch My Bum)
Number of samples: 8934660
Duration: 3:23
Left Right

Peak Value: -0.10 dB -0.10 dB
Avg RMS: -8.71 dB -8.65 dB
DR channel: 7.34 dB 7.24 dB

Official DR Value: DR7

Samplerate: 44100 Hz
Channels: 2
Bits per sample: 16
Bitrate: 997 kbps
Codec: FLAC

Analyzed: Toni Braxton / 100 Hits - 2000s Anthems (1) Uniting Nations / 100 Hits - 2000s Anthems (2)

DR Peak RMS Duration Track

DR6 -1.68 dB -8.66 dB 4:23 09-He Wasn't Man Enough
DR5 -0.90 dB -7.78 dB 2:48 16-Out of Touch

Number of tracks: 2
Official DR value: DR6

Samplerate: 44100 Hz
Channels: 2
Bits per sample: 16
Bitrate: 997 kbps
Codec: FLAC

[CUETools log; Date: 04.09.2015 13:32:16; Version: 2.1.4]
[CTDB TOCID: ZTYDh7nFu3CojNBEtz9wA00Id8U-] found.
Track | CTDB Status
1 | (3/3) Accurately ripped
2 | (3/3) Accurately ripped
3 | (3/3) Accurately ripped
4 | (3/3) Accurately ripped
5 | (3/3) Accurately ripped
6 | (3/3) Accurately ripped
7 | (3/3) Accurately ripped
8 | (3/3) Accurately ripped
9 | (3/3) Accurately ripped
10 | (3/3) Accurately ripped
11 | (3/3) Accurately ripped
12 | (3/3) Accurately ripped
13 | (3/3) Accurately ripped
14 | (3/3) Accurately ripped
15 | (3/3) Accurately ripped
16 | (3/3) Accurately ripped
17 | (3/3) Accurately ripped
18 | (3/3) Accurately ripped
19 | (3/3) Accurately ripped
20 | (3/3) Accurately ripped
[AccurateRip ID: 0033799c-02f0c58a-44106314] disk not present in database.

Track Peak [ CRC32 ] [W/O NULL] [ LOG ]
-- 98,8 [DFB806C9] [C04E6AE8]
01 98,8 [E622B97A] [13DF90B7] CRC32
02 91,1 [4C393828] [13EE155E] CRC32
03 98,3 [0A45CFBA] [EBB87B62] CRC32
04 98,8 [1BEBC311] [8930F585] CRC32
05 79,8 [0A8279F8] [3323A250] CRC32
06 84,6 [FEFFA777] [0D8FB82B] CRC32
07 98,8 [A49C1B6D] [11AE39BE] CRC32
08 91,1 [F0CE9F2C] [D4E19801] CRC32
09 82,4 [9B6BDD60] [AB81B1D9] CRC32
10 98,8 [7B779AE7] [E1E7EF02] CRC32
11 98,8 [82057F40] [6A630287] CRC32
12 87,8 [D25507DF] [13509354] CRC32
13 98,8 [E496ED63] [8B677EC4] CRC32
14 98,8 [684DC0D7] [6BDA6D1A] CRC32
15 98,8 [E0C30982] [057DF827] CRC32
16 90,1 [3862C7CA] [31188E1A] CRC32
17 90,4 [E227F8D4] [82C3BFAC] CRC32
18 98,8 [1B1B5AE9] [7C1165CA] CRC32
19 98,8 [F2EB994E] 9F6C066 CRC32
20 98,8 [EC6C9179] [634959F7] CRC32

VA - 100 Hits: 2000s Anthems (2014)

Tracklist CD4:

01. 5ive - Let's Dance (3:36)
02. The Hoosiers - Worried About Ray (2:48)
03. Gareth Gates - Anyone of Us (Stupid Mistake) (3:49)
04. 3SL - Take It Easy (3:13)
05. Big Brovaz - Favourite Things (3:16)
06. ABS - What You Got (3:52)
07. Buffalo G - We're Really Saying Something (3:18)
08. Gareth Gates - Sunshine (3:35)
09. Lemar - Dance (With U) (3:10)
10. One True Voice - Sacred Trust (4:43)
11. Shayne Ward - No Promises (3:44)
12. Bow Wow feat. Ciara - Like You (3:26)
13. Amerie - Touch (3:40)
14. Ana Johnsson - We Are (3:54)
15. Mandy Moore - I Wanna Be With You (5:02)
16. Natasha Bedingfield - Single (3:57)
17. Debra Stephenson - Music (3:32)
18. Pop! - Can't Say Goodbye (3:42)
19. Sarah Whatmore - Automatic (3:12)
20. Lauren Waterworth - Baby Now That I've Found You (3:30)

Exact Audio Copy V1.1 from 23. June 2015

EAC extraction logfile from 16. August 2015, 23:14

Various Artists / 100 Hits - 2000s Anthems

Used drive : PIONEER BD-RW BDR-206 Adapter: 1 ID: 0

Read mode : Secure
Utilize accurate stream : Yes
Defeat audio cache : Yes
Make use of C2 pointers : No

Read offset correction

: 667
Overread into Lead-In and Lead-Out : No
Fill up missing offset samples with silence : Yes
Delete leading and trailing silent blocks : No
Null samples used in CRC calculations : Yes
Used interface
: Native Win32 interface for Win NT & 2000
Gap handling
: Appended to previous track

Used output format : User Defined Encoder
Selected bitrate : 1024 kBit/s
Quality : High
Add ID3 tag : No
Command line compressor : C:\Program Files (x86)\Exact Audio Copy\Flac\flac.exe
Additional command line options : -8 -V -T "artist=%artist%" -T "title=%title%" -T "album=%albumtitle%" -T "date=%year%" -T "tracknumber=%tracknr%" -T "genre=%genre%" %source%

TOC of the extracted CD Track | Start | Length | Start sector | End sector
--1 | 0:00.00 | 3:36.33 | 0 | 16232 2 | 3:36.33 | 2:47.68 | 16233 | 28825 3 | 6:24.26 | 3:49.01 | 28826 | 46001 4 | 10:13.27 | 3:12.58 | 46002 | 60459 5 | 13:26.10 | 3:15.46 | 60460 | 75130 6 | 16:41.56 | 3:51.52 | 75131 | 92507 7 | 20:33.33 | 3:18.05 | 92508 | 107362 8 | 23:51.38 | 3:35.12 | 107363 | 123499 9

Direct Download

Tags: Anthems

VA - 100 Hits: 2000s Anthems (2014) Download via Hotfile Rapidshare Fileserve Megaupload & FileSonic, VA - 100 Hits: 2000s Anthems (2014) free torrent downloads included crack, serial, keygen.


Attention!Information

Members of Guest cannot leave comments.