VA - Mojo Presents Feed Your Head (2002) {December 2002}

Download Now

VA - Mojo Presents Feed Your Head (2002) {December 2002}

VA - Mojo Presents Feed Your Head
EAC Rip | FLAC with CUE and log | scans | 398 mb
MP3 CBR 320kbps | RAR | 162 mb
Genre: jazz, soul, garage rock, R&B, reggae, psychedelic, hip-hop, alternative, blues, funk

Feed Your Head is a compilation CD found in the December 2002 issue of Mojo magazine. This collection is an ode to drug-related songs and the CD design is that of a pill, packaged in a custom "baggie". The music is what you're meant to get high to.
VA - Mojo Presents Feed Your Head (2002) {December 2002}

1. The Dramatics - The Devil Is Dope (5:22)
2. The Sonics - Strychnine (2:13)
3. Nat Adderley - Quit It (3:48)
4. The Small Faces - Here Comes The Nice (3:05)
5. Dillinger - Cocaine In My Brain (5:11)
6. Donovan - Sunny Goodge Street (2:57)
7. Country Joe & The Fish - Bass Strings (3:57)
8. The Pretty Things - Defecting Grey (5:10)
9. The Flamin' Groovies - Slow Death (4:38)
10. Chris Bell - I Am The Cosmos (3:48)
11. Grandmaster Flash - White Lines (7:39)
12. Sebadoh - Too Pure (3:46)
13. The Mighty Hannibal - The Truth Shall Make You Free (3:17)
14. James Booker - Junco Partner (5:05)
15. Funkadelic - Maggot Brain (10:18)
16. Harry The Hipster Gibson - Who Put The Benzedrine (3:06)

Exact Audio Copy V1.1 from 23. June 2015

EAC extraction logfile from 2. September 2015, 21:16

Various Artists / Mojo Presents Feed Your Head

Used drive : TEAC DVD-ROM DV-28SW Adapter: 1 ID: 0

Read mode : Secure
Utilize accurate stream : Yes
Defeat audio cache : Yes
Make use of C2 pointers : No

Read offset correction

: 6
Overread into Lead-In and Lead-Out : No
Fill up missing offset samples with silence : Yes
Delete leading and trailing silent blocks : No
Null samples used in CRC calculations : Yes
Used interface
: Native Win32 interface for Win NT & 2000
Gap handling
: Appended to previous track

Used output format : Internal WAV Routines
Sample format : 44.100 Hz; 16 Bit; Stereo

TOC of the extracted CD Track | Start | Length | Start sector | End sector
--1 | 0:00.00 | 5:24.71 | 0 | 24370 2 | 5:24.71 | 2:11.60 | 24371 | 34255 3 | 7:36.56 | 3:48.66 | 34256 | 51421 4 | 11:25.47 | 3:03.25 | 51422 | 65171 5 | 14:28.72 | 5:09.64 | 65172 | 88410 6 | 19:38.61 | 2:55.61 | 88411 | 101596 7 | 22:34.47 | 3:58.43 | 101597 | 119489 8 | 26:33.15 | 5:10.64 | 119490 | 142803 9 | 31:44.04 | 4:40.07 | 142804 | 163810
10 | 36:24.11 | 3:47.07 | 163811 | 180842
11 | 40:11.18 | 7:37.48 | 180843 | 215165
12 | 47:48.66 | 3:48.45 | 215166 | 232310
13 | 51:37.36 | 3:18.19 | 232311 | 247179
14 | 54:55.55 | 5:08.53 | 247180 | 270332
15 | 60:04.33 | 10:19.64 | 270333 | 316821
16 | 70:24.22 | 3:04.12 | 316822 | 330633

Track 1 Filename C:\My Documents\My FLAC\VA - Mojo Presents Feed Your Head (2002) [FLAC] {December 2002}\01 - The Dramatics - The Devil Is Dope.wav Pre-gap length 0:00:02.00 Peak level 98.7 %
Extraction speed 3.0 X
Track quality 100.0 %
Test CRC ACB360E8
Copy CRC ACB360E8
Accurately ripped (confidence 15) [11558DF6] (AR v2)
Copy OK

Track 2 Filename C:\My Documents\My FLAC\VA - Mojo Presents Feed Your Head (2002) [FLAC] {December 2002}\02 - The Sonics - Strychnine.wav Pre-gap length 0:00:01.50 Peak level 77.0 %
Extraction speed 2.1 X
Track quality 99.9 %
Test CRC 07964CF2
Copy CRC 07964CF2
Accurately ripped (confidence 14) [A7E27DA2] (AR v2)
Copy OK

Track 3 Filename C:\My Documents\My FLAC\VA - Mojo Presents Feed Your Head (2002) [FLAC] {December 2002}\03 - Nat Adderley - Quit It.wav Pre-gap length 0:00:01.50 Peak level 99.8 %
Extraction speed 3.3 X
Track quality 100.0 %
Test CRC B01B1617
Copy CRC B01B1617
Accurately ripped (confidence 15) [4FE439C6] (AR v2)
Copy OK

Track 4 Filename C:\My Documents\My FLAC\VA - Mojo Presents Feed Your Head (2002) [FLAC] {December 2002}\04 - The Small Faces - Here Comes The Nice.wav Pre-gap length 0:00:01.51 Peak level 79.1 %
Extraction speed 3.3 X
Track quality 100.0 %
Test CRC DEED176B
Copy CRC DEED176B
Accurately ripped (confidence 14) [174D66D4] (AR v2)
Copy OK

Track 5 Filename C:\My Documents\My FLAC\VA - Mojo Presents Feed Your Head (2002) [FLAC] {December 2002}\05 - Dillinger - Cocaine In My Brain.wav Pre-gap length 0:00:01.50 Peak level 99.8 %
Extraction speed 3.8 X
Track quality 100.0 %
Test CRC 06A7EF00
Copy CRC 06A7EF00
Accurately ripped (confidence 15) [7F67D92F] (AR v2)
Copy OK

Track 6 Filename C:\My Documents\My FLAC\VA - Mojo Presents Feed Your Head (2002) [FLAC] {December 2002}\06 - Donovan - Sunny Goodge Street.wav Pre-gap length 0:00:01.51 Peak level 87.7 %
Extraction speed 3.7 X
Track quality 100.0 %
Test CRC BF824597
Copy CRC BF824597
Accurately ripped (confidence 14) F4E9FE5 (AR v2)
Copy OK

Track 7 Filename C:\My Documents\My FLAC\VA - Mojo Presents Feed Your Head (2002) [FLAC] {December 2002}\07 - Country Joe & The Fish - Bass Strings.wav Pre-gap length 0:00:01.51 Peak level 99.8 %
Extraction speed 4.1 X
Track quality 100.0 %
Test CRC D3BE0A4F
Copy CRC D3BE0A4F
Accurately ripped (confidence 15) [37F1919D] (AR v2)
Copy OK

Track 8 Filename C:\My Documents\My FLAC\VA - Mojo Presents Feed Your Head (2002) [FLAC] {December 2002}\08 - The Pretty Things - Defecting Grey.wav Pre-gap length 0:00:01.50 Peak level 99.8 %
Extraction speed 4.3 X
Track quality 100.0 %
Test CRC 7D788547
Copy CRC 7D788547
Accurately ripped (confidence 14) [E918D9CB] (AR v2)
Copy OK

Track 9 Filename C:\My Documents\My FLAC\VA - Mojo Presents Feed Your Head (2002) [FLAC] {December 2002}\09 - The Flamin' Groovies - Slow Death.wav Pre-gap length 0:00:01.51 Peak level 89.1 %
Extraction speed 4.3 X
Track quality 100.0 %
Test CRC 1E1E73D0
Copy CRC 1E1E73D0
Accurately ripped (confidence 14) [F8F0B7E0] (AR v2)
Copy OK

Track 10 Filename C:\My Documents\My FLAC\VA - Mojo Presents Feed Your Head (2002) [FLAC] {December 2002}\10 - Chris Bell - I Am The Cosmos.wav Pre-gap length 0:00:01.50 Peak level 99.8 %
Extraction speed 3.8 X
Track quality 99.9 %
Test CRC 8CDEF028
Copy CRC 8CDEF028
Accurately ripped (confidence 14) [8265D760] (AR v2)
Copy OK

Track 11 Filename C:\My Documents\My FLAC\VA - Mojo Presents Feed Your Head (2002) [FLAC] {December 2002}\11 - Grandmaster Flash - White Lines.wav Pre-gap length 0:00:01.50 Peak level 86.7 %
Extraction speed 4.8 X
Track quality 100.0 %
Test CRC 57DF9E99
Copy CRC 57DF9E99
Accurately ripped (confidence 15) [0B234D5A] (AR v2)
Copy OK

Track 12 Filename C:\My Documents\My FLAC\VA - Mojo Presents Feed Your Head (2002) [FLAC] {December 2002}\12 - Sebadoh - Too Pure.wav Pre-gap length 0:00:01.50 Peak level 87.3 %
Extraction speed 5.0 X
Track quality 100.0 %
Test CRC 1ADAF2DD
Copy CRC 1ADAF2DD
Accurately ripped (confidence 15) [3EC982D6] (AR v2)
Copy OK

Track 13 Filename C:\My Documents\My FLAC\VA - Mojo Presents Feed Your Head (2002) [FLAC] {December 2002}\13 - The Mighty Hannibal - The Truth Shall Make You Free.wav Pre-gap length 0:00:01.50 Peak level 99.8 %
Extraction speed 5.0 X
Track quality 100.0 %
Test CRC 8EC3FC61
Copy CRC 8EC3FC61
Accurately ripped (confidence 15) [48D1EEA7] (AR v2)
Copy OK

Track 14 Filename C:\My Documents\My FLAC\VA - Mojo Presents Feed Your Head (2002) [FLAC] {December 2002}\14 - James Booker - Junco Partner.wav Pre-gap length 0:00:01.51 Peak level 97.2 %
Extraction speed 5.3 X
Track quality 100.0 %
Test CRC 452F241C
Copy CRC 452F241C
Accurately ripped (confidence 15) [D1F15CAD] (AR v2)
Copy OK

Track 15 Filename C:\My Documents\My FLAC\VA - Mojo Presents Feed Your Head (2002) [FLAC] {December 2002}\15 - Funkadelic - Maggot Brain.wav Pre-gap length 0:00:01.50 Peak level 99.8 %
Extraction speed 5.3 X
Track quality 99.9 %
Test CRC E93A87F8
Copy CRC E93A87F8
Accurately ripped (confidence 13) [41208C31] (AR v2)
Copy OK

Track 16 Filename C:\My Documents\My FLAC\VA - Mojo Presents Feed Your Head (2002) [FLAC] {December 2002}\16 - Harry The Hipster Gibson - Who Put The Benzedrine.wav Pre-gap length 0:00:01.50 Peak level 89.1 %
Extraction speed 5.4 X
Track quality 100.0 %
Test CRC AAF10DFB
Copy CRC AAF10DFB
Accurately ripped (confidence 13) [D389F7C9] (AR v2)
Copy OK

All tracks accurately ripped

No errors occurred

End of status report

- CUETools DB Plugin V2.1.6

[CTDB TOCID: Tgyyu6zJa1ARuq42ebEfe.mXqkU-] found
Submit result: Tgyyu6zJa1ARuq42ebEfe.mXqkU- has been confirmed
Track | CTDB Status
1 | (3/3) Accurately ripped
2 | (3/3) Accurately ripped
3 | (3/3) Accurately ripped
4 | (3/3) Accurately ripped
5 | (3/3) Accurately ripped
6 | (3/3) Accurately ripped
7 | (3/3) Accurately ripped
8 | (3/3) Accurately ripped
9 | (3/3) Accurately ripped
10 | (3/3) Accurately ripped
11 | (3/3) Accurately ripped
12 | (3/3) Accurately ripped
13 | (3/3) Accurately ripped
14 | (3/3) Accurately ripped
15 | (3/3) Accurately ripped
16 | (3/3) Accurately ripped

VA - Mojo Presents Feed Your Head (2002) {December 2002}

DOWNLOAD LINKS:
Buy Premium To Support Me & Get Resumable Support & Max Speed


Links are Interchangeable - No Password - Single Extraction

Direct Download

Tags: Presents

VA - Mojo Presents Feed Your Head (2002) {December 2002} Download via Hotfile Rapidshare Fileserve Megaupload & FileSonic, VA - Mojo Presents Feed Your Head (2002) {December 2002} free torrent downloads included crack, serial, keygen.


Attention!Information

Members of Guest cannot leave comments.