Bill Evans & Eddie Gomez - Intuition (1974) {2012 Japan SHM-CD Mini LP 24-96 Remaster}

Download Now


Bill Evans & Eddie Gomez - Intuition (1974) {2012 Japan SHM-CD Mini LP 24-96 Remaster}
Bill Evans & Eddie Gomez - Intuition (1974) {2012 Japan SHM-CD Mini LP 24-96 Remaster}
EAC rip (secure mode) | FLAC (tracks)+CUE+LOG -> 170 Mb | MP3 @320 -> 100 Mb
Full Artwork @ 600 dpi (png) -> 200 Mb | 5% repair rar | 24-96 remaster
© 2012 Fantasy / Concord / Universal Japan | UCCO-90133
Jazz / Post Bop / Modal Music / Piano / Bass

"Cardboard sleeve (mini LP) reissue from Bill Evans featuring the high-fidelity SHM-CD format (compatible with standard CD players) and the latest 24bit/96kHz digital remastering. Part of a 5-album Bill Evans SHM-CD cardboard sleeve reissue series featuring albums "I Will Say Goodbye," "Alone (Again)," "Intuition," "Re: Person I Knew," and "Jazzhouse." After seven years of their close relationship in his trio, Bill Evans in 1974 finally realized his dream of recording a duo album with bassist Eddie Gomez. Intuition is that album. One of the most brilliant of the young bassists influenced by Scott LaFaro, Gomez continued development of the role of the bass in Evans's trio as a fully contributory voice, not just a member of the rhythm section."

Bill Evans & Eddie Gomez - Intuition (1974) {2012 Japan SHM-CD Mini LP 24-96 Remaster}

"Gomez had contrived, years earlier, to be in a band opposite Evans at the Village Vanguard, in hopes that the pianist would like what he had heard. Evans did, and Gomez became an indispensable member of the trio, staying for more that a decade. The depth of their empathy is beautifully captured in this recording, with Evans playing acoustic piano and the electric model that was in vogue at the time."


Bill Evans & Eddie Gomez - Intuition (1974) {2012 Japan SHM-CD Mini LP 24-96 Remaster}


Personnel:
Bill Evans - piano, electric piano
Eddie Gómez - bass

tracklist:
01 - Invitation
02 - Blue Serge
03 - Show-Type Tune
04 - The Nature Of Things
05 - Are You All The Things
06 - A Face Without A Name
07 - Falling Grace
08 - Hi Lili, Hi Lo (For Ellaine)

Exact Audio Copy V1.1 from 23. June 2015

EAC extraction logfile from 1. September 2015, 16:59

Bill Evans & Eddie Gomez / Intuition

Used drive : TSSTcorpCDDVDW SE-208DB Adapter: 7 ID: 0

Read mode : Secure
Utilize accurate stream : Yes
Defeat audio cache : Yes
Make use of C2 pointers : No

Read offset correction

: 6
Overread into Lead-In and Lead-Out : No
Fill up missing offset samples with silence : Yes
Delete leading and trailing silent blocks : No
Null samples used in CRC calculations : Yes
Used interface
: Installed external ASPI interface
Gap handling
: Appended to previous track

Used output format : User Defined Encoder
Selected bitrate : 1024 kBit/s
Quality : High
Add ID3 tag : No
Command line compressor : C:\Program Files (x86)\FLAC Frontend\tools\flac.exe
Additional command line options : -8 -V -T "ARTIST=%artist%" -T "TITLE=%title%" -T "ALBUM=%albumtitle%" -T "DATE=%year%" -T "TRACKNUMBER=%tracknr%" -T "TOTALTRACKS=%numtracks%" -T "GENRE=%genre%" -T "ALBUMARTIST=%albumartist%" -T "ALBUM ARTIST=%albumartist%" -T "COMMENT=EAC Secure Mode, Test & Copy, AccurateRip, FLAC -8" %source%

TOC of the extracted CD Track | Start | Length | Start sector | End sector
--1 | 0:00.00 | 6:32.23 | 0 | 29422 2 | 6:32.23 | 5:08.59 | 29423 | 52581 3 | 11:41.07 | 4:07.13 | 52582 | 71119 4 | 15:48.20 | 3:26.09 | 71120 | 86578 5 | 19:14.29 | 5:01.29 | 86579 | 109182 6 | 24:15.58 | 5:39.36 | 109183 | 134643 7 | 29:55.19 | 4:31.11 | 134644 | 154979 8 | 34:26.30 | 7:18.17 | 154980 | 187846

Track 1 Filename M:\_EAC\Bill Evans & Eddie Gomez - Intuition (1974) [FLAC] {2012 Japan SHM-CD Mini LP 24-96 Remaster}\01 - Invitation.wav Pre-gap length 0:00:02.00 Peak level 66.7 %
Extraction speed 1.1 X
Track quality 100.0 %
Test CRC 45CCF146
Copy CRC 45CCF146
Accurately ripped (confidence 1) [5E6716DA] (AR v2)
Copy OK

Track 2 Filename M:\_EAC\Bill Evans & Eddie Gomez - Intuition (1974) [FLAC] {2012 Japan SHM-CD Mini LP 24-96 Remaster}\02 - Blue Serge.wav Pre-gap length 0:00:03.05 Peak level 89.0 %
Extraction speed 1.2 X
Track quality 100.0 %
Test CRC FCEDAC84
Copy CRC FCEDAC84
Accurately ripped (confidence 1) [10F79467] (AR v2)
Copy OK

Track 3 Filename M:\_EAC\Bill Evans & Eddie Gomez - Intuition (1974) [FLAC] {2012 Japan SHM-CD Mini LP 24-96 Remaster}\03 - Show-Type Tune.wav Pre-gap length 0:00:02.24 Peak level 61.2 %
Extraction speed 1.2 X
Track quality 100.0 %
Test CRC 7244E54D
Copy CRC 7244E54D
Accurately ripped (confidence 1) [64A594D8] (AR v2)
Copy OK

Track 4 Filename M:\_EAC\Bill Evans & Eddie Gomez - Intuition (1974) [FLAC] {2012 Japan SHM-CD Mini LP 24-96 Remaster}\04 - The Nature Of Things.wav Pre-gap length 0:00:02.22 Peak level 49.1 %
Extraction speed 1.3 X
Track quality 100.0 %
Test CRC 3CD535C2
Copy CRC 3CD535C2
Accurately ripped (confidence 1) [2E87A181] (AR v2)
Copy OK

Track 5 Filename M:\_EAC\Bill Evans & Eddie Gomez - Intuition (1974) [FLAC] {2012 Japan SHM-CD Mini LP 24-96 Remaster}\05 - Are You All The Things.wav Pre-gap length 0:00:03.10 Peak level 87.5 %
Extraction speed 1.4 X
Track quality 100.0 %
Test CRC 857484A7
Copy CRC 857484A7
Accurately ripped (confidence 1) [501E2B1A] (AR v2)
Copy OK

Track 6 Filename M:\_EAC\Bill Evans & Eddie Gomez - Intuition (1974) [FLAC] {2012 Japan SHM-CD Mini LP 24-96 Remaster}\06 - A Face Without A Name.wav Pre-gap length 0:00:02.00 Peak level 80.5 %
Extraction speed 1.5 X
Track quality 100.0 %
Test CRC 4821C898
Copy CRC 4821C898
Accurately ripped (confidence 1) [FAEDCAE7] (AR v2)
Copy OK

Track 7 Filename M:\_EAC\Bill Evans & Eddie Gomez - Intuition (1974) [FLAC] {2012 Japan SHM-CD Mini LP 24-96 Remaster}\07 - Falling Grace.wav Pre-gap length 0:00:02.71 Peak level 97.2 %
Extraction speed 1.5 X
Track quality 100.0 %
Test CRC 7919844F
Copy CRC 7919844F
Accurately ripped (confidence 1) [C3AFB627] (AR v2)
Copy OK

Track 8 Filename M:\_EAC\Bill Evans & Eddie Gomez - Intuition (1974) [FLAC] {2012 Japan SHM-CD Mini LP 24-96 Remaster}\08 - Hi Lili, Hi Lo (For Ellaine).wav Pre-gap length 0:00:02.37 Peak level 69.7 %
Extraction speed 1.6 X
Track quality 99.9 %
Test CRC 4E738BE6
Copy CRC 4E738BE6
Accurately ripped (confidence 1) [86A8890C] (AR v2)
Copy OK

All tracks accurately ripped

No errors occurred

End of status report

==== Log checksum 5658FC6BBA5D4D34D5ECF7572C6FC76A0A1EDFA4C9EF491DAF6F8441784FE5E0 ====

Bill Evans & Eddie Gomez - Intuition (1974) {2012 Japan SHM-CD Mini LP 24-96 Remaster}

Bill Evans & Eddie Gomez - Intuition (1974) {2012 Japan SHM-CD Mini LP 24-96 Remaster}






NEXT -> More Bill Evans 2012 Japan SHM-CD Mini LP 24-96 Remaster..
DOWNLOAD LINKS:
Buy Premium To Support Me & Get Resumable Support & Max Speed


Links are Interchangeable - No Password - Single Extraction

Direct Download

Tags: Intuition, Remaster

Bill Evans & Eddie Gomez - Intuition (1974) {2012 Japan SHM-CD Mini LP 24-96 Remaster} Download via Hotfile Rapidshare Fileserve Megaupload & FileSonic, Bill Evans & Eddie Gomez - Intuition (1974) {2012 Japan SHM-CD Mini LP 24-96 Remaster} free torrent downloads included crack, serial, keygen.


Attention!Information

Members of Guest cannot leave comments.