VA - Traces Of Love (2002) {Jazziz Magazine February 2002}

Download Now

VA - Traces Of Love (2002) {Jazziz Magazine February 2002}

VA - Traces Of Love (2002) {Jazziz Magazine February 2002}
EAC Rip | FLAC with CUE and log | scans | 379 mb
MP3 CBR 320kbps | RAR | 150 mb
Genre: jazz, vocal jazz

Traces Of Love is a sampler CD found in the February 2002 issue of Jazziz. It was released to coincide with Valentine's Day but is perfect for any romantic time of the year.
VA - Traces Of Love (2002) {Jazziz Magazine February 2002}

1 Mark Billman - Opening To (Love) (6:03)
2 Kitty Margolis - Heart's Desire (4:08)
3 Marilyn Scott - Who's Looking For Me? (4:45)
4 Suzanne Abbuehl - 'Round Midnight (4:13)
5 Stu Goldberg - Yvonne (8:05)
6 Jim Brickman - Simple Things (3:32)
7 Nancy Wilson - Anytime (2:22)
8 Carol Duboc - With All That I Am (7:21)
9 Paul Taylor - Tuesday Afternoon (4:56)
10 Three Mo' Tenors - Love Train/Oh Girl/Betcha By Golly Wow/Midnight Train To Georgia (6:35)
11 Norah Jones - Turn Me On (2:35)
12 Jeannie Newhall - Oh, Heaven (3:49)
13 Michael Dees - One Single Rose (4:43)
14 Claire Ritter - River Of Joy (3:43)

Exact Audio Copy V1.1 from 23. June 2015

EAC extraction logfile from 3. September 2015, 17:10

Various Artists / Traces Of Love

Used drive : TEAC DVD-ROM DV-28SW Adapter: 1 ID: 0

Read mode : Secure
Utilize accurate stream : Yes
Defeat audio cache : Yes
Make use of C2 pointers : No

Read offset correction

: 6
Overread into Lead-In and Lead-Out : No
Fill up missing offset samples with silence : Yes
Delete leading and trailing silent blocks : No
Null samples used in CRC calculations : Yes
Used interface
: Native Win32 interface for Win NT & 2000
Gap handling
: Appended to previous track

Used output format : Internal WAV Routines
Sample format : 44.100 Hz; 16 Bit; Stereo

TOC of the extracted CD Track | Start | Length | Start sector | End sector
--1 | 0:00.00 | 6:03.32 | 0 | 27256 2 | 6:03.32 | 4:08.50 | 27257 | 45906 3 | 10:12.07 | 4:45.10 | 45907 | 67291 4 | 14:57.17 | 4:13.25 | 67292 | 86291 5 | 19:10.42 | 8:05.48 | 86292 | 122714 6 | 27:16.15 | 3:32.10 | 122715 | 138624 7 | 30:48.25 | 2:22.42 | 138625 | 149316 8 | 33:10.67 | 7:21.33 | 149317 | 182424 9 | 40:32.25 | 4:56.25 | 182425 | 204649
10 | 45:28.50 | 6:35.67 | 204650 | 234341
11 | 52:04.42 | 2:35.48 | 234342 | 246014
12 | 54:40.15 | 3:49.10 | 246015 | 263199
13 | 58:29.25 | 4:43.35 | 263200 | 284459
14 | 63:12.60 | 3:43.65 | 284460 | 301249

Track 1 Filename C:\My Documents\My FLAC\VA - Traces Of Love (2002) [FLAC] {Jazziz Magazine February 2002}\01 - Marc Billman - Opening To (Love).wav Pre-gap length 0:00:02.00 Peak level 99.9 %
Extraction speed 3.0 X
Track quality 100.0 %
Test CRC 720F6130
Copy CRC 720F6130
Accurately ripped (confidence 2) [5C6E20A7] (AR v2)
Copy OK

Track 2 Filename C:\My Documents\My FLAC\VA - Traces Of Love (2002) [FLAC] {Jazziz Magazine February 2002}\02 - Kitty Margolis - Heart's Desire.wav Pre-gap length 0:00:02.55 Peak level 86.1 %
Extraction speed 2.7 X
Track quality 99.9 %
Test CRC AA4943C5
Copy CRC AA4943C5
Accurately ripped (confidence 2) [D177E042] (AR v2)
Copy OK

Track 3 Filename C:\My Documents\My FLAC\VA - Traces Of Love (2002) [FLAC] {Jazziz Magazine February 2002}\03 - Marilyn Scott - Who's Looking For Love.wav Pre-gap length 0:00:02.55 Peak level 99.9 %
Extraction speed 3.5 X
Track quality 100.0 %
Test CRC E85310CC
Copy CRC E85310CC
Accurately ripped (confidence 2) [6E7D3DE3] (AR v2)
Copy OK

Track 4 Filename C:\My Documents\My FLAC\VA - Traces Of Love (2002) [FLAC] {Jazziz Magazine February 2002}\04 - Suzanne Abbuehl - Round Midnight.wav Pre-gap length 0:00:02.55 Peak level 99.9 %
Extraction speed 3.7 X
Track quality 100.0 %
Test CRC 0CF722A5
Copy CRC 0CF722A5
Accurately ripped (confidence 2) [19EFF289] (AR v2)
Copy OK

Track 5 Filename C:\My Documents\My FLAC\VA - Traces Of Love (2002) [FLAC] {Jazziz Magazine February 2002}\05 - Stu Goldberg - Yvonne.wav Pre-gap length 0:00:02.55 Peak level 100.0 %
Extraction speed 4.3 X
Track quality 100.0 %
Test CRC B8527193
Copy CRC B8527193
Accurately ripped (confidence 2) [5C726E26] (AR v2)
Copy OK

Track 6 Filename C:\My Documents\My FLAC\VA - Traces Of Love (2002) [FLAC] {Jazziz Magazine February 2002}\06 - Jim Brickman - Simple Things.wav Pre-gap length 0:00:02.55 Peak level 82.2 %
Extraction speed 3.5 X
Track quality 99.9 %
Test CRC F288E816
Copy CRC F288E816
Accurately ripped (confidence 2) [4B06D71D] (AR v2)
Copy OK

Track 7 Filename C:\My Documents\My FLAC\VA - Traces Of Love (2002) [FLAC] {Jazziz Magazine February 2002}\07 - Nancy Wilson - Anytime.wav Pre-gap length 0:00:02.55 Peak level 99.9 %
Extraction speed 4.0 X
Track quality 100.0 %
Test CRC 84377C19
Copy CRC 84377C19
Accurately ripped (confidence 2) [FE729FA4] (AR v2)
Copy OK

Track 8 Filename C:\My Documents\My FLAC\VA - Traces Of Love (2002) [FLAC] {Jazziz Magazine February 2002}\08 - Carl Duboc - With All That I Am.wav Pre-gap length 0:00:02.55 Peak level 96.6 %
Extraction speed 4.9 X
Track quality 100.0 %
Test CRC 4ADB3BA4
Copy CRC 4ADB3BA4
Accurately ripped (confidence 2) [54DA0AB7] (AR v2)
Copy OK

Track 9 Filename C:\My Documents\My FLAC\VA - Traces Of Love (2002) [FLAC] {Jazziz Magazine February 2002}\09 - Paul Taylor - Tuesday Afternoon.wav Pre-gap length 0:00:02.55 Peak level 80.3 %
Extraction speed 4.9 X
Track quality 100.0 %
Test CRC 59565ECB
Copy CRC 59565ECB
Accurately ripped (confidence 2) [881697C1] (AR v2)
Copy OK

Track 10 Filename C:\My Documents\My FLAC\VA - Traces Of Love (2002) [FLAC] {Jazziz Magazine February 2002}\10 - Three Mo' Tenors - Medley.wav Pre-gap length 0:00:02.55 Peak level 94.4 %
Extraction speed 5.3 X
Track quality 100.0 %
Test CRC 13A7D335
Copy CRC 13A7D335
Accurately ripped (confidence 2) [6E4ECA3A] (AR v2)
Copy OK

Track 11 Filename C:\My Documents\My FLAC\VA - Traces Of Love (2002) [FLAC] {Jazziz Magazine February 2002}\11 - Norah Jones - Turn Me On.wav Pre-gap length 0:00:02.55 Peak level 93.2 %
Extraction speed 4.8 X
Track quality 100.0 %
Test CRC 688F70D0
Copy CRC 688F70D0
Accurately ripped (confidence 2) [12A493CF] (AR v2)
Copy OK

Track 12 Filename C:\My Documents\My FLAC\VA - Traces Of Love (2002) [FLAC] {Jazziz Magazine February 2002}\12 - Jeanne Newhall - Oh, Heaven.wav Pre-gap length 0:00:02.56 Peak level 91.4 %
Extraction speed 4.5 X
Track quality 100.0 %
Test CRC D577FE1E
Copy CRC D577FE1E
Accurately ripped (confidence 2) [2BAE812A] (AR v2)
Copy OK

Track 13 Filename C:\My Documents\My FLAC\VA - Traces Of Love (2002) [FLAC] {Jazziz Magazine February 2002}\13 - Michael Dees - One Single Rose.wav Pre-gap length 0:00:02.55 Peak level 79.4 %
Extraction speed 0.7 X
Track quality 100.0 %
Test CRC 67ED572F
Copy CRC 67ED572F
Accurately ripped (confidence 2) [2E763DA2] (AR v2)
Copy OK

Track 14 Filename C:\My Documents\My FLAC\VA - Traces Of Love (2002) [FLAC] {Jazziz Magazine February 2002}\14 - Claire Ritter - River Of Joy.wav Pre-gap length 0:00:02.55 Peak level 100.0 %
Extraction speed 4.8 X
Track quality 100.0 %
Test CRC 7BC07BED
Copy CRC 7BC07BED
Accurately ripped (confidence 2) [4814C348] (AR v2)
Copy OK

All tracks accurately ripped

No errors occurred

End of status report

- CUETools DB Plugin V2.1.6

[CTDB TOCID: svqAxJSjKzRH1aa8Xo89ltF1IsY-] found
Submit result: svqAxJSjKzRH1aa8Xo89ltF1IsY- has been confirmed
Track | CTDB Status
1 | (3/3) Accurately ripped
2 | (3/3) Accurately ripped
3 | (3/3) Accurately ripped
4 | (3/3) Accurately ripped
5 | (3/3) Accurately ripped
6 | (3/3) Accurately ripped
7 | (3/3) Accurately ripped
8 | (3/3) Accurately ripped
9 | (3/3) Accurately ripped
10 | (3/3) Accurately ripped
11 | (3/3) Accurately ripped
12 | (3/3) Accurately ripped
13 | (3/3) Accurately ripped
14 | (3/3) Accurately ripped

VA - Traces Of Love (2002) {Jazziz Magazine February 2002}

DOWNLOAD:
Buy Premium To Support Me & Get Resumable Support & Max Speed


Links are Interchangeable - No Password

Direct Download

Tags: Traces, Jazziz, Magazine

VA - Traces Of Love (2002) {Jazziz Magazine February 2002} Download via Hotfile Rapidshare Fileserve Megaupload & FileSonic, VA - Traces Of Love (2002) {Jazziz Magazine February 2002} free torrent downloads included crack, serial, keygen.


Attention!Information

Members of Guest cannot leave comments.