Tangerine - The Peeling Of Tangerine (1999)

Download Now

Tangerine - The Peeling Of Tangerine (1999)

Tangerine - The Peeling Of Tangerine (1999)
EAC | FLAC | Image (Cue&Log) ~ 174 Mb (incl 5%) | Mp3 (CBR320) ~ 79 Mb (incl 5%) | Scans included
Genre: Psychedelic Rock | Label: Gear Fab | # GF-131 | Time: 00:30:39

"Led by the multi-instrumentalist Ferraro brothers Al and Crash (they mainly played guitar), Tangerine started playing together in the late '60s, but the group's sole album was released in 1971. In many ways, The Peeling of Tangerine is a stellar, accomplished album. More than anyone, the band recalls a slightly heavier Santana; the music is full of Latin chord progressions, salsafied and tribal drumming and percussion, and Al Ferraro's beautiful guitar work, as well as some of the dynamics of early-'70s psychedelia and soul. The band doesn't stake out their own musical ground and the songs are not altogether distinctive enough; more often than not, they sound like structureless (but not formless) jams passing for songs. On the other hand, those jams are often scintillating, with a slight mysterious lurch: had they been honed in and further fleshed out, they had the makings of blazing tunes"

Tangerine - The Peeling Of Tangerine (1999)

Tracklist:

01. Come And See Me (02:44)
02. The Hutch (03:27)
03. Chain Gang (05:42)
04. A.J.F. (05:32)
05. My Main Woman (13:11)


Exact Audio Copy V0.99 prebeta 4 from 23. January 2008

Отчёт EAC об извлечении, выполненном 16. января 2011, 3:37

Tangerine / The Peeling Of Tangerine

Дисковод: ASUS DRW-24B1ST Adapter: 3 ID: 0

Режим чтения : Достоверность
Использование точного потока : Да
Отключение кэша аудио : Да
Использование указателей C2 : Нет

Коррекция смещения при чтении : 6
Способность читать области Lead-in и Lead-out : Нет
Заполнение пропущенных сэмплов тишиной : Да
Удаление блоков с тишиной в начале и конце : Нет
При вычислениях CRC использовались нулевые сэмплы : Да
Интерфейс : Встроенный Win32-интерфейс для Win NT/2000

Выходной формат : Пользовательский кодировщик
Выбранный битрейт : 320 kBit/s
Качество : Высокий
Добавление ID3-тэга : Нет
Утилита сжатия : C:\Program Files\Exact Audio Copy\FLAC\FLAC.EXE
Дополнительные параметры : -6 -V -T "ARTIST=%a" -T "TITLE=%t" -T "ALBUM=%g" -T "DATE=%y" -T "TRACKNUMBER=%n" -T "GENRE=%m" -T "COMMENT=%e" %s -o %d

TOC извлечённого CD Трек | Старт | Длительность | Начальный сектор | Конечный сектор

1 | 0:00.00 | 2:44.20 | 0 | 12319
2 | 2:44.20 | 3:27.27 | 12320 | 27871
3 | 6:11.47 | 5:42.50 | 27872 | 53571
4 | 11:54.22 | 5:32.45 | 53572 | 78516
5 | 17:26.67 | 13:11.60 | 78517 | 137901

Характеристики диапазона извлечения и сообщения об ошибках

Выбранный диапазон Имя файла C:\Torrent\purple\Tangerine - The Peeling Of Tangerine.wav Пиковый уровень 88.8 %
Качество диапазона 100.0 %
CRC теста C36E1BF3
CRC копии C36E1BF3
Копирование... OK

Ошибок не произошло


AccurateRip: сводка

Трек 1 точность не определена (достоверность 1) 3085968, AccurateRip вернул [09D07D80]
Трек 2 точность не определена (достоверность 1) [3F13882E], AccurateRip вернул 303E036
Трек 3 точность не определена (достоверность 1) [3C1DC954], AccurateRip вернул C69F81C
Трек 4 точность не определена (достоверность 1) E081F29, AccurateRip вернул [AC39F8AD]
Трек 5 точность не определена (достоверность 1) [540DF1FA], AccurateRip вернул [3BC1CBA2]

Ни один трек не прошёл проверки на точность
В вашей базе может быть иной вариант штамповки диска

Конец отчёта

[CUETools log; Date: 04.09.2015 16:46:05; Version: 2.1.4]
[CTDB TOCID: xC3bppF0qqvXVKJPI7UQY.0BBRk-] found.
Track | CTDB Status
1 | (1/1) Accurately ripped
2 | (1/1) Accurately ripped
3 | (1/1) Accurately ripped
4 | (1/1) Accurately ripped
5 | (1/1) Accurately ripped
[AccurateRip ID: 0004bba7-0017898e-37072e05] found.
Track [ CRC | V2 ] Status
01 3085968|254926b3 (1+1/4) Accurately ripped
02 [3f13882e|56671338] (1+1/4) Accurately ripped
03 [3c1dc954|ce43b05a] (1+1/4) Accurately ripped
04 e081f29|79626315 (1+1/4) Accurately ripped
05 [540df1fa|65faf14f] (1+1/4) Accurately ripped
Offsetted by -220:
01 [09d07d80] (1/4) Accurately ripped
02 303e036 (1/4) Accurately ripped
03 c69f81c (1/4) Accurately ripped
04 [ac39f8ad] (1/4) Accurately ripped
05 [3bc1cba2] (1/4) Accurately ripped

Track Peak [ CRC32 ] [W/O NULL] [ LOG ]
-- 88,8 [C36E1BF3] [57125520] CRC32
01 84,6 767A2F7 [7C625926]
02 80,5 [496C987D] [9386A252]
03 88,8 [8BBF4D3B] [ACECDC90]
04 83,3 A75D8AB [D3C78A15]
05 80,1 [89A78D87] [F962CCD8]

foobar2000 1.2 / Dynamic Range Meter 1.1.1
log date: 2015-09-04 17:16:45

Analyzed: Tangerine / The Peeling Of Tangerine

DR Peak RMS Duration Track

DR11 -1.45 dB -15.49 dB 2:44 01-Come And See Me
DR11 -1.88 dB -14.56 dB 3:27 02-The Hutch
DR11 -1.03 dB -15.13 dB 5:43 03-Chain Gang
DR11 -1.58 dB -14.20 dB 5:33 04-A.J.F.
DR11 -1.92 dB -16.41 dB 13:12 05-My Main Woman

Number of tracks: 5
Official DR value: DR11

Samplerate: 44100 Hz
Channels: 2
Bits per sample: 16
Bitrate: 733 kbps
Codec: FLAC

Tangerine - The Peeling Of Tangerine (1999)

Tangerine - The Peeling Of Tangerine (1999)

All thanks to original releaser
Password: designol

DOWNLOAD LINKS:
Buy Premium To Support Me & Get Resumable Support & Max Speed


Links are Interchangeable - No Password - Single Extraction

Direct Download

Tags: Tangerine, Peeling, Tangerine

Tangerine - The Peeling Of Tangerine (1999) Download via Hotfile Rapidshare Fileserve Megaupload & FileSonic, Tangerine - The Peeling Of Tangerine (1999) free torrent downloads included crack, serial, keygen.


Attention!Information

Members of Guest cannot leave comments.