At Vance - Facing Your Enemy (2012) Repost

Download Now

At Vance - Facing Your Enemy (2012) Repost

At Vance - Facing Your Enemy (2012)
EAC | Flac(Image) + Cue + Log & MP3 CBR 320Kbps
Fono, FO 912 CD | Russia | ~ 391 or 118 Mb | Scans(600dpi, jpg) -> 64 Mb
Neoclassic Power Metal

"Each year evidence mounts that, should the world indeed suffer a final and devastating apocalypse, only cockroaches and German power metal will live on...unharmed, unperturbed, and unknowing..."


Tracklist:

01. Heaven Is Calling [4:52]
02. Facing Your Enemy [4:34]
03. Eyes of a Stranger [3:45]
04. Fear No Evil [3:54]
05. Live & Learn [3:34]
06. Don't Dream [5:27]
07. See Me Crying [6:07]
08. Saviour [3:40]
09. Tokyo [4:10]
10. March of the Dwarf [1:54]
11. Fame and Fortune [4:23]
12. Things I Never Needed [3:45]

Exact Audio Copy V1.0 beta 6 from 9. April 2015

EAC extraction logfile from 22. August 2015, 18:34

At Vance / Facing Your Enemy

Used drive : ASUS DRW-22B2L Adapter: 1 ID: 0

Read mode : Secure
Utilize accurate stream : Yes
Defeat audio cache : Yes
Make use of C2 pointers : No

Read offset correction

: 6
Overread into Lead-In and Lead-Out : No
Fill up missing offset samples with silence : Yes
Delete leading and trailing silent blocks : No
Null samples used in CRC calculations : Yes
Used interface
: Native Win32 interface for Win NT & 2000

Used output format : Internal WAV Routines
Sample format : 44.100 Hz; 16 Bit; Stereo

TOC of the extracted CD Track | Start | Length | Start sector | End sector
--1 | 0:00.00 | 4:51.50 | 0 | 21874 2 | 4:51.50 | 4:33.59 | 21875 | 42408 3 | 9:25.34 | 3:44.42 | 42409 | 59250 4 | 13:10.01 | 3:53.40 | 59251 | 76765 5 | 17:03.41 | 3:34.33 | 76766 | 92848 6 | 20:37.74 | 5:27.25 | 92849 | 117398 7 | 26:05.24 | 6:07.11 | 117399 | 144934 8 | 32:12.35 | 3:40.33 | 144935 | 161467 9 | 35:52.68 | 4:10.22 | 161468 | 180239
10 | 40:03.15 | 1:54.30 | 180240 | 188819
11 | 41:57.45 | 4:22.41 | 188820 | 208510
12 | 46:20.11 | 3:44.59 | 208511 | 225369

Range status and errors

Selected range Filename D:\Scullplug\At Vance 2012FM\At Vance - Facing Your Enemy.wav Peak level 99.8 %
Extraction speed 5.4 X
Range quality 99.9 %
Test CRC AF85558A
Copy CRC AF85558A
Copy OK

No errors occurred


AccurateRip summary

Track 1 accurately ripped (confidence 2) [CC28101B] (AR v2)
Track 2 accurately ripped (confidence 2) [EDBC33E9] (AR v2)
Track 3 accurately ripped (confidence 2) [AF30BD85] (AR v2)
Track 4 accurately ripped (confidence 2) [862B21C7] (AR v2)
Track 5 accurately ripped (confidence 2) [5FF7EC69] (AR v2)
Track 6 accurately ripped (confidence 2) [082086F5] (AR v2)
Track 7 accurately ripped (confidence 2) [035BB0C0] (AR v2)
Track 8 accurately ripped (confidence 2) [1613CBF5] (AR v2)
Track 9 accurately ripped (confidence 2) [0827D436] (AR v2)
Track 10 accurately ripped (confidence 2) [E6360FD5] (AR v2)
Track 11 accurately ripped (confidence 2) [74CE9BE7] (AR v2)
Track 12 accurately ripped (confidence 2) [15206E1D] (AR v2)

All tracks accurately ripped

End of status report

==== Log checksum E881A2F6DACC7A4B4EF68A8697C5C21C1FA91DBDAFB71FAFD5896BB88875AE92 ====

foobar2000 1.2.9 / Dynamic Range Meter 1.1.1
log date: 2015-09-06 20:41:39

Analyzed: At Vance / Facing Your Enemy

DR Peak RMS Duration Track

DR5 -0.01 dB -5.19 dB 4:52 01-Heaven Is Calling
DR5 -0.01 dB -6.23 dB 4:34 02-Facing Your Enemy
DR5 -0.01 dB -5.50 dB 3:45 03-Eyes of a Stranger
DR5 -0.01 dB -5.99 dB 3:54 04-Fear No Evil
DR5 -0.01 dB -5.44 dB 3:34 05-Live & Learn
DR5 -0.01 dB -7.09 dB 5:27 06-Don't Dream
DR5 -0.01 dB -5.62 dB 6:07 07-See Me Crying
DR5 -0.01 dB -5.52 dB 3:40 08-Saviour
DR5 -0.01 dB -6.07 dB 4:10 09-Tokyo
DR6 -0.01 dB -6.23 dB 1:54 10-March of the Dwarf
DR5 -0.01 dB -5.48 dB 4:23 11-Fame and Fortune
DR6 -0.01 dB -8.22 dB 3:45 12-Things I Never Needed

Number of tracks: 12
Official DR value: DR5

Samplerate: 44100 Hz
Channels: 2
Bits per sample: 16
Bitrate: 1059 kbps
Codec: FLAC

[CUETools log; Date: 06.09.2015 20:31:27; Version: 2.1.4]
[CTDB TOCID: Iwy0KPjUnw3oJMzKC.7UKN9DGKA-] found.
Track | CTDB Status
1 | (11/12) Accurately ripped
2 | (12/12) Accurately ripped
3 | (12/12) Accurately ripped
4 | (12/12) Accurately ripped
5 | (12/12) Accurately ripped
6 | (12/12) Accurately ripped
7 | (12/12) Accurately ripped
8 | (12/12) Accurately ripped
9 | (12/12) Accurately ripped
10 | (12/12) Accurately ripped
11 | (12/12) Accurately ripped
12 | (12/12) Accurately ripped
[AccurateRip ID: 00173115-00d711a1-aa0bbc0c] found.
Track [ CRC | V2 ] Status
01 [3d3aa965|cc28101b] (00+02/11) Accurately ripped
02 [1b26ff43|edbc33e9] (00+02/11) Accurately ripped
03 [f90ae1f4|af30bd85] (00+02/11) Accurately ripped
04 [a6118893|862b21c7] (00+02/11) Accurately ripped
05 [83346905|5ff7ec69] (00+02/11) Accurately ripped
06 [4dfb28b8|082086f5] (00+02/11) Accurately ripped
07 [d00b71e9|035bb0c0] (00+02/11) Accurately ripped
08 [96a6c457|1613cbf5] (00+02/11) Accurately ripped
09 [c175fc43|0827d436] (00+02/11) Accurately ripped
10 [a0a72201|e6360fd5] (00+02/11) Accurately ripped
11 [d4136c8d|74ce9be7] (00+02/11) Accurately ripped
12 [7be51f08|15206e1d] (00+02/12) Accurately ripped
Offsetted by 114:
01 [fce75bd5] (00/11) No match (V2 was not tested)
02 [30a22475] (00/11) No match (V2 was not tested)
03 [3fade2a2] (00/11) No match (V2 was not tested)
04 [9565ec37] (00/11) No match (V2 was not tested)
05 [ffd05fd1] (00/11) No match (V2 was not tested)
06 [5bc55c0c] (00/11) No match (V2 was not tested)
07 [03ab78a5] (00/11) No match (V2 was not tested)
08 [c787a445] (00/11) No match (V2 was not tested)
09 5334d7d (00/11) No match (V2 was not tested)
10 0326f9d (00/11) No match (V2 was not tested)
11 [9848aa6f] (00/11) No match (V2 was not tested)
12 [f9782186] (00/12) No match (V2 was not tested)

Track Peak [ CRC32 ] [W/O NULL] [ LOG ]
-- 99,8 [AF85558A] [F3A2A4AD] CRC32
01 99,8 [487ABAC7] [1DB909E0]
02 99,8 [F14290D2] [7F1C5CB1]
03 99,8 [DC8A088D] [A3CD51BD]
04 99,8 [1DF042DD] [C51B49EB]
05 99,8 [73272373] [5635656A]
06 99,8 [278A6602] [0C34D2AB]
07 99,8 [42F9C163] [A8BE3EEA]
08 99,8 [7B12E117] 898E384
09 99,8 [9CC8C87A] [37A5FD1B]
10 99,8 [C9F3227C] [DEF2513A]
11 99,8 [07E95C18] [93B12B37]
12 99,8 [F3DA3E8A] [2D0ECFC5]

At Vance - Facing Your Enemy (2012) Repost

Download Links:
(Premium Recommended)


All above links are interchangable. No password

Direct Download

Tags: Facing, Repost

At Vance - Facing Your Enemy (2012) Repost Download via Hotfile Rapidshare Fileserve Megaupload & FileSonic, At Vance - Facing Your Enemy (2012) Repost free torrent downloads included crack, serial, keygen.


Attention!Information

Members of Guest cannot leave comments.