Bob Dylan - Knocked Out Loaded (1986)

Download Now

Bob Dylan - Knocked Out Loaded (1986)

Bob Dylan - Knocked Out Loaded (1986)
Rock | 1cd | EAC Rip | Flac + Cue + Log | covers
Columbia, 88691924312.32 | rem: 2013 | 270Mb

It's easy to dismiss Knocked Out Loaded out of hand, considering it an extension of the slick professionalism of Empire Burlesque, only not written completely by Dylan. He collaborates with everyone from Tom Petty to Sam Shepard, relying on recordings cut at various times in the mid-'80s, which makes its scattershot effect perhaps not so surprising.
Still, that scattershot approach has its charms, especially when it results in winding epics like the Shepard collaboration "Brownsville Girl." But even with songs as good and interesting as that, the record follows too many detours to be consistently compelling, and some of those detours wind down roads that are indisputably dead ends. By 1986, such uneven records weren't entirely unexpected by Dylan, but that didn't make them any less frustrating. ~Allmusic

Track listing
01. You Wanna Ramble (3:19)
02. They Killed Him (4:05)
03. Driftin' Too Far From The Shore (3:43)
04. Precious Memories (3:15)
05. Maybe Someday (3:20)
06. Brownsville Girl (11:06)
07. Got My Mind Made Up (2:58)
08. Under Your Spell (3:58)
~ (35:45)

Exact Audio Copy V1.0 beta 3 from 29. August 2011

EAC extraction logfile from 4. May 2014, 10:56

Bob Dylan / Knocked Out Loaded

Used drive : PLEXTOR DVDR PX-L890SA Adapter: 1 ID: 0

Read mode : Secure
Utilize accurate stream : Yes
Defeat audio cache : Yes
Make use of C2 pointers : No

Read offset correction : 6
Overread into Lead-In and Lead-Out : No
Fill up missing offset samples with silence : Yes
Delete leading and trailing silent blocks : No
Null samples used in CRC calculations : Yes
Used interface : Native Win32 interface for Win NT & 2000

Used output format : User Defined Encoder
Selected bitrate : 768 kBit/s
Quality : High
Add ID3 tag : No
Command line compressor : G:\Program Files\Exact Audio Copy\FLAC\FLAC.EXE
Additional command line options : -V -8 -T "Date=%year%" -T "Genre=%genre%" %source%

TOC of the extracted CD

Track | Start | Length | Start sector | End sector
---------------------------------------------------------
1 | 0:00.43 | 3:19.26 | 43 | 14993
2 | 3:19.69 | 4:05.20 | 14994 | 33388
3 | 7:25.14 | 3:43.10 | 33389 | 50123
4 | 11:08.24 | 3:15.09 | 50124 | 64757
5 | 14:23.33 | 3:20.24 | 64758 | 79781
6 | 17:43.57 | 11:05.38 | 79782 | 129694
7 | 28:49.20 | 2:57.44 | 129695 | 143013
8 | 31:46.64 | 3:58.30 | 143014 | 160893

Range status and errors

Selected range

Filename H:\MUSIC\DYLAN\1986. Bob Dylan - Knocked Out Loaded (Columbia 88691924312.32, EU)\Knocked Out Loaded.wav

Peak level 97.2 %
Extraction speed 5.3 X
Range quality 100.0 %
Test CRC 184C82E0
Copy CRC 184C82E0
Copy OK

No errors occurred


AccurateRip summary

Track 1 accurately ripped (confidence 15) [898B3BD4] (AR v2)
Track 2 accurately ripped (confidence 15) [70E71CC2] (AR v2)
Track 3 accurately ripped (confidence 15) [A98568FA] (AR v2)
Track 4 accurately ripped (confidence 15) [47FD191B] (AR v2)
Track 5 accurately ripped (confidence 15) [55652BD1] (AR v2)
Track 6 accurately ripped (confidence 15) [1F685A5A] (AR v2)
Track 7 accurately ripped (confidence 15) [31D7BB7A] (AR v2)
Track 8 accurately ripped (confidence 15) [C18941A2] (AR v2)

All tracks accurately ripped

End of status report

==== Log checksum 83FF8F6BCF94FC0F8DF16EBE9DF4A4BD8E366C2E70EB7FF73DDB4209A1218066 ====

[CUETools log; Date: 2015.09.05. 13:03:24; Version: 2.1.5]
Pregap length 00:00:43.
[CTDB TOCID: tNX0uV.SDu2zHQp5urxqvCv290k-] found.
Track | CTDB Status
1 | (17/17) Accurately ripped
2 | (17/17) Accurately ripped
3 | (16/17) Accurately ripped
4 | (16/17) Accurately ripped
5 | (17/17) Accurately ripped
6 | (16/17) Accurately ripped
7 | (16/17) Accurately ripped
8 | (16/17) Accurately ripped
[AccurateRip ID: 000a5355-0046b26f-5e086108] found.
Track [ CRC | V2 ] Status
01 [ccfe5466|898b3bd4] (00+31/55) Accurately ripped
02 [e79b685d|70e71cc2] (00+31/55) Accurately ripped
03 [ed2f6b21|a98568fa] (00+31/55) Accurately ripped
04 [5d17f5df|47fd191b] (00+31/55) Accurately ripped
05 [0f13f6d9|55652bd1] (00+31/55) Accurately ripped
06 [a53a6cdc|1f685a5a] (00+31/55) Accurately ripped
07 5dbe49d|31d7bb7a (00+31/55) Accurately ripped
08 [921b077f|c18941a2] (00+31/55) Accurately ripped
Offsetted by -90:
01 [6650f4a5] (00/55) No match (V2 was not tested)
02 [00eb36fe] (00/55) No match (V2 was not tested)
03 [8815e6f3] (00/55) No match (V2 was not tested)
04 [3b41b972] (00/55) No match (V2 was not tested)
05 [0d9a3855] (00/55) No match (V2 was not tested)
06 [380ff8fd] (00/55) No match (V2 was not tested)
07 [2d2ca4c0] (00/55) No match (V2 was not tested)
08 [e46a2174] (00/55) No match (V2 was not tested)
Offsetted by 12:
01 [52086857] (00/55) No match (V2 was not tested)
02 [9bb977d4] (00/55) No match (V2 was not tested)
03 [386b1a21] (00/55) No match (V2 was not tested)
04 [1e0f0a31] (00/55) No match (V2 was not tested)
05 [8fa4ef55] (00/55) No match (V2 was not tested)
06 [6c2a3164] (00/55) No match (V2 was not tested)
07 [83a906be] (00/55) No match (V2 was not tested)
08 [a20ce806] (00/55) No match (V2 was not tested)

Track Peak [ CRC32 ] [W/O NULL] [ LOG ]
-- 97,2 [184C82E0] [06460332] CRC32
01 93,4 [CEEA6427] [6C9F2425]
02 90,5 429AB25 [71E043A6]
03 97,2 [4112A1F8] [D9970CFE]
04 97,1 [30C4D3CE] [92F2DBC9]
05 94,2 [D715194E] [6221CA39]
06 93,2 [D3C92177] [E72D7A28]
07 95,3 [5E72FC2B] [A60EC4C8]
08 97,1 [E6CFFFE5] [17113F3B]

password: asd
Buy Premium Account To Get Resumable Support & Max Speed

DOWNLOAD LINK

Links are Interchangeable - No Password - Single Extraction

Direct Download

Tags: Knocked, Loaded

Bob Dylan - Knocked Out Loaded (1986) Download via Hotfile Rapidshare Fileserve Megaupload & FileSonic, Bob Dylan - Knocked Out Loaded (1986) free torrent downloads included crack, serial, keygen.


Attention!Information

Members of Guest cannot leave comments.