King Crimson - Beat (1982) (HDCD)

Download Now

King Crimson - Beat (1982) (HDCD)

King Crimson - Beat (1982) (HDCD)
Rock | 1cd | EAC Rip | Flac + Cue + Log | covers
Discipline Global Mobile, DGM0509 | 24bit remaster | rel: 2004 | 375Mb

Beat is not as good as its predecessor (1981's Discipline), but it's not too shabby, either. The '80s version of King Crimson (Robert Fripp, guitar; Adrian Belew, vocals/guitar; Tony Levin, bass; and Bill Bruford, drums) retains the then-modern new wave sound introduced on Discipline. The band's performances are still inspired, but the songwriting isn't as catchy or strong. The moody love song "Heartbeat" has become a concert favorite for the band, and contains a Jimi Hendrix-like backward guitar solo.
Other worthwhile tracks include "Waiting Man," which features world music sounds (thanks to some stunning bass/percussion interplay), and "Neurotica" does an excellent job of painting an unwavering picture of a large U.S. city, with its jerky rhythms and tense vocals. With lots of different guitar textures, bass explorations, and uncommon drum rhythms present, King Crimson's Beat will automatically appeal to other musicians. But since they're fantastic songwriters as well, you don't have to be a virtuoso to feel the passion of their music. ~Allmusic

Track listing
01. Neal And Jack And Me (4:23)
02. Heartbeat (3:55)
03. Sartori In Tangier (3:35)
04. Waiting Man (4:27)
05. Neurotica (4:49)
06. Two Hands (3:23)
07. The Howler (4:14)
08. Requiem (6:38)
~ (35:23)

Personnel
- Robert Fripp - guitar, organ, Frippertronics
- Adrian Belew - guitar, lead vocals, additional drums (3)
- Tony Levin - bass guitar, backing vocals, Chapman stick
- Bill Bruford - drums

Exact Audio Copy V1.0 beta 3 from 29. August 2011

Отчёт EAC об извлечении, выполненном 28. августа 2013, 15:53

KING CRIMSON / Beat

Дисковод: TSSTcorpCDDVDW SH-224DB Adapter: 4 ID: 1

Режим чтения : Достоверность
Использование точного потока : Да
Отключение кэша аудио : Да
Использование указателей C2 : Нет

Коррекция смещения при чтении : 6
Способность читать области Lead-in и Lead-out : Нет
Заполнение пропущенных сэмплов тишиной : Да
Удаление блоков с тишиной в начале и конце : Нет
При вычислениях CRC использовались нулевые сэмплы : Да
Интерфейс : Встроенный Win32-интерфейс для Win NT/2000

Выходной формат : Внутренние WAV-операции
Формат сэмплов : 44.100 Гц; 16 бит; стерео

TOC извлечённого CD

Трек | Старт | Длительность | Начальный сектор | Конечный сектор
---------------------------------------------------------------------
1 | 0:00.00 | 4:22.62 | 0 | 19711
2 | 4:22.62 | 3:54.68 | 19712 | 37329
3 | 8:17.55 | 3:34.42 | 37330 | 53421
4 | 11:52.22 | 4:27.33 | 53422 | 73479
5 | 16:19.55 | 4:48.55 | 73480 | 95134
6 | 21:08.35 | 3:23.07 | 95135 | 110366
7 | 24:31.42 | 4:13.43 | 110367 | 129384
8 | 28:45.10 | 6:38.02 | 129385 | 159236

Характеристики диапазона извлечения и сообщения об ошибках

Выбранный диапазон

Имя файла D:\TEMP\KING CRIMSON - 1982 - Beat [2004 24-bit remaster, HDCD, DGM0509].wav

Пиковый уровень 97.6 %
Скорость извлечения 2.6 X
Качество диапазона 99.9 %
CRC теста 3AA17BAB
CRC копии 3AA17BAB
Копирование... OK

Ошибок не произошло


AccurateRip: сводка

Трек 1 : извлечено точно (доверие 17) [8B84ADF0] (AR v2)
Трек 2 : извлечено точно (доверие 17) 060EE60 (AR v2)
Трек 3 : извлечено точно (доверие 17) [70F25CDF] (AR v2)
Трек 4 : извлечено точно (доверие 17) [FE829C37] (AR v2)
Трек 5 : извлечено точно (доверие 17) [55C17A4D] (AR v2)
Трек 6 : извлечено точно (доверие 17) [2BBD6989] (AR v2)
Трек 7 : извлечено точно (доверие 16) [021D0D29] (AR v2)
Трек 8 : извлечено точно (доверие 16) [D15FE3BB] (AR v2)

Все треки извлечены точно

Конец отчёта

[CUETools log; Date: 26.05.2014 3:13:48; Version: 2.1.4]
HDCD: peak extend: none, transient filter: none, gain: -4,0dB..0,0dB
[CTDB TOCID: 7jeZ.uc0eZQtswUwdJqdvxTrkik-] found.
Track | CTDB Status
1 | (63/68) Accurately ripped
2 | (63/68) Accurately ripped
3 | (63/68) Accurately ripped
4 | (63/68) Accurately ripped
5 | (63/68) Accurately ripped
6 | (63/68) Accurately ripped
7 | (63/68) Accurately ripped
8 | (62/68) Accurately ripped
[AccurateRip ID: 000a58b4-0045565f-6c084b08] found.
Track [ CRC | V2 ] Status
01 [2926a254|8b84adf0] (029+018/196) Accurately ripped
02 [fd82d527|b060ee60] (029+018/198) Accurately ripped
03 [314011ae|70f25cdf] (029+018/196) Accurately ripped
04 [57419c56|fe829c37] (029+018/198) Accurately ripped
05 [7f048401|55c17a4d] (029+018/193) Accurately ripped
06 [54e7442f|2bbd6989] (028+018/194) Accurately ripped
07 [e69f53ad|021d0d29] (029+017/192) Accurately ripped
08 [5419af6a|d15fe3bb] (029+017/189) Accurately ripped
Offsetted by -1437:
01 [d82da0c8] (002/196) Accurately ripped
02 [d2f20f33] (002/198) Accurately ripped
03 [67148559] (002/196) Accurately ripped
04 [ed7bc203] (002/198) Accurately ripped
05 [1a3c9154] (002/193) Accurately ripped
06 [539789eb] (002/194) Accurately ripped
07 [1da6295d] (002/192) Accurately ripped
08 [f0c600ab] (002/189) Accurately ripped
Offsetted by -1360:
01 [d2a392b1] (002/196) Accurately ripped
02 [ac01a7fd] (002/198) Accurately ripped
03 [d9b6c52f] (002/196) Accurately ripped
04 [95cb76a7] (002/198) Accurately ripped
05 [89591a9f] (002/193) Accurately ripped
06 [224f57ba] (002/194) Accurately ripped
07 [f241fd63] (002/192) Accurately ripped
08 41df5c4 (002/189) Accurately ripped
Offsetted by -583:
01 [53bc4080] (008/196) Accurately ripped
02 [6631f690] (007/198) Accurately ripped
03 [e7755c6d] (007/196) Accurately ripped
04 [86520d36] (008/198) Accurately ripped
05 [a1f0f6aa] (007/193) Accurately ripped
06 513e3fd (009/194) Accurately ripped
07 [ff131f31] (007/192) Accurately ripped
08 a6f1c93 (007/189) Accurately ripped
Offsetted by -399:
01 f7a8afb (003/196) Accurately ripped
02 [7b008f7b] (003/198) Accurately ripped
03 [c258ddd6] (003/196) Accurately ripped
04 [76a49217] (003/198) Accurately ripped
05 [cc4fe90d] (003/193) Accurately ripped
06 [f1b56935] (003/194) Accurately ripped
07 [1508d9c3] (003/192) Accurately ripped
08 [e48375ff] (003/189) Accurately ripped
Offsetted by 50:
01 [e0766922] (002/196) Accurately ripped
02 [fb9f007f] (002/198) Accurately ripped
03 7060e37 (002/196) Accurately ripped
04 [c09ce2d8] (002/198) Accurately ripped
05 [8b7ed817] (002/193) Accurately ripped
06 2ca1c81 (002/194) Accurately ripped
07 [13810839] (002/192) Accurately ripped
08 [ead8b814] (002/189) Accurately ripped
Offsetted by 86:
01 [072ca2bf] (063/196) Accurately ripped
02 [55abd4cc] (064/198) Accurately ripped
03 [7e6a27c4] (064/196) Accurately ripped
04 [4ea95914] (065/198) Accurately ripped
05 [7328ac55] (061/193) Accurately ripped
06 [4e7c8baf] (061/194) Accurately ripped
07 [5d36fbb7] (062/192) Accurately ripped
08 [893c7634] (059/189) Accurately ripped
Offsetted by -2167:
01 [8c4d185f] (000/196) No match (V2 was not tested)
02 [8ddfdf7e] (000/198) No match (V2 was not tested)
03 [470eb4b2] (000/196) No match (V2 was not tested)
04 [3f7b6245] (000/198) No match (V2 was not tested)
05 [2bba5c1d] (000/193) No match (V2 was not tested)
06 [e6620ee0] (000/194) No match (V2 was not tested)
07 [c3945395] (000/192) No match (V2 was not tested)
08 [0b26b858] (000/189) No match (V2 was not tested)
Offsetted by -759:
01 [a2d9af4d] (000/196) No match (V2 was not tested)
02 [fba3ec3b] (000/198) No match (V2 was not tested)
03 [86a140ba] (000/196) No match (V2 was not tested)
04 [fd0f688d] (000/198) No match (V2 was not tested)
05 [eaf8db7f] (000/193) No match (V2 was not tested)
06 [53cb2a18] (000/194) No match (V2 was not tested)
07 [7dc8184e] (000/192) No match (V2 was not tested)
08 [a5e69102] (000/189) No match (V2 was not tested)
Offsetted by 44:
01 [528e3970] (000/196) No match
02 [9d4dce40] (002/198) Accurately ripped
03 [3914a03c] (000/196) No match
04 [0d2bacfc] (000/198) No match
05 [d18b09d3] (000/193) No match
06 [1ebb7582] (000/194) No match
07 [43cfb1c0] (000/192) No match
08 [38b5e320] (000/189) No match
Offsetted by 92:
01 [2f2e2373] (000/196) No match
02 [8f84f592] (000/198) No match
03 [3a4bf72c] (000/196) No match
04 [48e17c3e] (000/198) No match
05 [9a051041] (000/193) No match
06 [9a15fac8] (000/194) No match (V2 was not tested)
07 [e4654b0d] (000/192) No match (V2 was not tested)
08 [116f156b] (000/189) No match (V2 was not tested)

Track Peak [ CRC32 ] [W/O NULL] [ LOG ]
-- 97,6 [3AA17BAB] [89AD6E68] CRC32
01 97,6 [7086CC7C] [2EB52055]
02 97,6 [85BB2900] [22902F2D]
03 97,6 [1E7FAAF1] [3A495E4F]
04 96,5 [DE80175A] [4FD24AEB]
05 96,5 [A4CA9F2B] [C219FCF3]
06 80,8 [89713693] [7C181C18]
07 97,6 [F4C10CC6] [FC623682]
08 96,5 [728E6F18] [DD25257D]

password: asd
Buy Premium Account To Get Resumable Support & Max Speed

DOWNLOAD LINK

Links are Interchangeable - No Password - Single Extraction

Direct Download

Tags: Crimson

King Crimson - Beat (1982) (HDCD) Download via Hotfile Rapidshare Fileserve Megaupload & FileSonic, King Crimson - Beat (1982) (HDCD) free torrent downloads included crack, serial, keygen.


Attention!Information

Members of Guest cannot leave comments.