Saga - Generation 13 (1995)

Download Now

Saga - Generation 13 (1995)

Saga - Generation 13 (1995)
XLD Rip | FLAC: Image+Cue+Log | 470 Mb | MP3 CBR 320 kbps | 163 Mb | Scans | 137 Mb | Time: 01:08:49
Genre: Progressive Rock, Neo-Prog, Arena Rock | Label: Polydor GmbH | Cat.№: 527 770-2

"Saga's 1995 release sets a turning point in the band's sound. It's the middle 90s with grunge and alternative metal as the main players in the world of music. By the end of the 80's Saga decided to change their sound to a more radio-friendly pop/rock sound; that endured right until 1995, when the band decided to make this extraordinary conceptual and progressive rock album."



Track Listing

01. Changes Are #1 (01:42)
02. Generation 13 (Theme #1) (02:42)
03. All Will Change (Goodbye und Good Luck) (06:04)
a) The Cross (Home #3)
04. Danger Whistle (05:19)
a) Leave Her Alone
05. I'll Never Be Like You #1 (01:20)
a) "My Name Is Sam" (Finding a Friend)
06. The 13th Generation (04:27)
07. The Cross (02:03)
08. The Learning Tree (04:58)
09. I'll Never Be Like You (Once Again) (03:59)
10. Snake Oil (06:05)
a) We Hope You're Feeling Better (The Test)
11. "My Name Is Sam" (Your Time Is Up) (02:36)
12. Generation 13 (Theme #2) (02:39)
13. Where Are You Now? (05:35)
a) "Screw Em"
14. No Strings Attached (05:20)
15. All Will Change (It's Happening To Me) (02:00)
16. The Victim (02:59)
17. One Small Step (07:16)
a) Sam's New Friend
b) We Hope You're Feeling Better

18. Changes Are #2 (01:36)

Produced by Jim Crichton

The Band

* Michael Sadler - lead vocals, pipe organ
* Ian Crichton - guitars
* Jim Gilmour - keyboards, backing vocals, clarinet
* Jim Crichton - bass
* Steve Negus - drums, percussion
* Mary Newland - backing vocals on "We Hope You're Feeling Better"
Orchestrations: Richard Baker & The Panorama City Philharmonic

Notes

Epiloge

Optimism, hope and a belief in constant Progress have been cornerstones of the American Dream for more than 200 years. To the extent that the 20th Century has been called the American century, this notion of Progress could well be seen as the greatest Icon of our Age. Yet as we approach the 21st Century there is a definite sourness, a Growing Anxiety that this icon, this great Locomotive is going off the rails. Are we really better off today than our grandparents generation? What lies ahead for our grandchildren? How will they view all of this so called Progress in fifty years time? What have we left for them?

What's more the suspicion exists that the whole notion of Perpetual Progress may have been a ruse all along to keep us reaching into our back pockets, to keep us madly consuming in the present without any regard to the future consequences of our actions. Merchants of Myth have amassed fortunes selling us products we think we want. We are Over-Consuming to the point where there is a dangerous possibility that the Ecological Fallout may be irreversible. As if the enviromental pollution wasn't bad enough it is even more frightening to contemplate the damage and degradation to our Collective Psyche. The purveryors of fantasy and popular culture have anesthesized us to Violence and Horror and created a culture of Information Anxiety where we are overwhelmed by gigabytes of Data. Like Magicians at work, they've had us all looking "over there" while the real stuff's been happening "over here". The "over here" is now on our doorsteps, in our backyards, in our broken families,in our violent schoolhouses...our collapsing planet.
But who are these Magicians? Are they predators perpetrating a great crime against an Innocent Prey? It's so easy to play the blame game...to become a Victim...but surely it is Us. We are all accountable. It's time to stop complaining and try to focus.

How are we going to restore sanity to this great Genetic Experiment?
How will you?

The 13th Generation is here.....

Saga - Generation 13 (1995)



X Lossless Decoder version 20130720 (144.0)

XLD extraction logfile from 2013-09-01 22:32:43 +0400

Saga / Generation 13 (527 770-2)

Used drive : TEAC DV-W516GDM (revision M4S2)
Media type : Pressed CD

Ripper mode : XLD Secure Ripper
Disable audio cache : OK for the drive with a cache less than 1375KiB
Make use of C2 pointers : NO
Read offset correction : 6
Max retry count : 20
Gap status : Analyzed, Appended

TOC of the extracted CD
Track | Start | Length | Start sector | End sector
--1 | 00:00:33 | 01:42:50 | 33 | 7732 2 | 01:43:08 | 02:42:50 | 7733 | 19932 3 | 04:25:58 | 06:04:20 | 19933 | 47252 4 | 10:30:03 | 05:19:55 | 47253 | 71232 5 | 15:49:58 | 01:20:00 | 71233 | 77232 6 | 17:09:58 | 04:27:57 | 77233 | 97314 7 | 21:37:40 | 02:03:33 | 97315 | 106572 8 | 23:40:73 | 04:58:27 | 106573 | 128949 9 | 28:39:25 | 03:59:15 | 128950 | 146889
10 | 32:38:40 | 06:05:35 | 146890 | 174299
11 | 38:44:00 | 02:36:18 | 174300 | 186017
12 | 41:20:18 | 02:38:72 | 186018 | 197939
13 | 43:59:15 | 05:35:38 | 197940 | 223102
14 | 49:34:53 | 05:20:27 | 223103 | 247129
15 | 54:55:05 | 02:00:28 | 247130 | 256157
16 | 56:55:33 | 02:59:65 | 256158 | 269647
17 | 59:55:23 | 07:16:22 | 269648 | 302369
18 | 67:11:45 | 01:36:63 | 302370 | 309632

List of alternate offset correction values# | Absolute | Relative | Confidence
1 | -658 | -664 | 4

AccurateRip Summary (DiscID: 002bc8c6-02502b97-f7102012)
Track 01 : OK (v1+v2, confidence 59/63)
Track 02 : OK (v1+v2, confidence 60/64)
Track 03 : OK (v1+v2, confidence 60/64)
Track 04 : OK (v1+v2, confidence 59/63)
Track 05 : OK (v1+v2, confidence 59/63)
Track 06 : OK (v1+v2, confidence 59/63)
Track 07 : OK (v1+v2, confidence 59/63)
Track 08 : OK (v1+v2, confidence 59/63)
Track 09 : OK (v1+v2, confidence 60/64)
Track 10 : OK (v1+v2, confidence 60/64)
Track 11 : OK (v1+v2, confidence 59/63)
Track 12 : OK (v1+v2, confidence 60/64)
Track 13 : OK (v1+v2, confidence 57/61)
Track 14 : OK (v1+v2, confidence 60/64)
Track 15 : OK (v1+v2, confidence 60/64)
Track 16 : OK (v1+v2, confidence 60/64)
Track 17 : OK (v1+v2, confidence 59/63)
Track 18 : OK (v1+v2, confidence 60/64)->All tracks accurately ripped.

All Tracks
Filename : /OdW/SAGA Discography/1995 - Generation 13 (527 770-2)/Saga - Generation 13 (527 770-2).flac
Album gain : -6.78 dB
Peak : 0.999969
CRC32 hash (test run) : D09C9F31
CRC32 hash : D09C9F31
CRC32 hash (skip zero) : 1BE8AD59
StatisticsRead error : 0Jitter error (maybe fixed) : 0Retry sector count : 0Damaged sector count : 0

Track 01
Pre-gap length : 00:02:33 Track gain : -0.73 dB
Peak : 0.763123
CRC32 hash (test run) : B0EDEAE5
CRC32 hash : B0EDEAE5
CRC32 hash (skip zero) : 565A2800
AccurateRip v1 signature : 535A3CE4
AccurateRip v2 signature : 08BCAE0E->Accurately ripped (v1+v2, confidence 42+17/63)
StatisticsRead error : 0Jitter error (maybe fixed) : 0Retry sector count : 0Damaged sector count : 0

Track 02 Track gain : -6.68 dB
Peak : 0.999969
CRC32 hash (test run) : 2535F64B
CRC32 hash : 2535F64B
CRC32 hash (skip zero) : 613B9352
AccurateRip v1 signature : 6BDBF0AD
AccurateRip v2 signature : AADC4F4E->Accurately ripped (v1+v2, confidence 42+18/64)
StatisticsRead error : 0Jitter error (maybe fixed) : 0Retry sector count : 0Damaged sector count : 0

Track 03 Track gain : -7.37 dB
Peak : 0.944153
CRC32 hash (test run) : BFBA6361
CRC32 hash : BFBA6361
CRC32 hash (skip zero) : 0B0A4E13
AccurateRip v1 signature : E532325E
AccurateRip v2 signature : 4416814D->Accurately ripped (v1+v2, confidence 42+18/64)
StatisticsRead error : 0Jitter error (maybe fixed) : 0Retry sector count : 0Damaged sector count : 0

Track 04 Track gain : -4.92 dB
Peak : 0.944153
CRC32 hash (test run) : F7697E66
CRC32 hash : F7697E66
CRC32 hash (skip zero) : 1B3A74FB
AccurateRip v1 signature : D849471D
AccurateRip v2 signature : EE02FD24->Accurately ripped (v1+v2, confidence 41+18/63)
StatisticsRead error : 0Jitter error (maybe fixed) : 0Retry sector count : 0Damaged sector count : 0

Track 05 Track gain : -2.13 dB
Peak : 0.944153
CRC32 hash (test run) : 75EC8B34
CRC32 hash : 75EC8B34
CRC32 hash (skip zero) : 515A82EC
AccurateRip v1 signature : B99B93B5
AccurateRip v2 signature : AE44DA3E->Accurately ripped (v1+v2, confidence 41+18/63)
StatisticsRead error : 0Jitter error (maybe fixed) : 0Retry sector count : 0Damaged sector count : 0

Track 06
Pre-gap length : 00:00:50 Track gain : -7.47 dB
Peak : 0.944153
CRC32 hash (test run) : E28FBD34
CRC32 hash : E28FBD34
CRC32 hash (skip zero) : 63B4904E
AccurateRip v1 signature : 03C4B28C
AccurateRip v2 signature : CC9E04C9->Accurately ripped (v1+v2, confidence 41+18/63)
StatisticsRead error : 0Jitter error (maybe fixed) : 0Retry sector count : 0Damaged sector count : 0

Track 07
Pre-gap length : 00:00:38 Track gain : 1.59 dB
Peak : 0.421722
CRC32 hash (test run) : 62B7CE82
CRC32 hash : 62B7CE82
CRC32 hash (skip zero) : 4D5480A8
AccurateRip v1 signature : 8B143734
AccurateRip v2 signature : 85F38468->Accurately ripped (v1+v2, confidence 41+18/63)
StatisticsRead error : 0Jitter error (maybe fixed) : 0Retry sector count : 0Damaged sector count : 0

Track 08
Pre-gap length : 00:00:40 Track gain : -8.28 dB
Peak : 0.944153
CRC32 hash (test run) : 4B72D9F3
CRC32 hash : 4B72D9F3
CRC32 hash (skip zero) : 423FA954
AccurateRip v1 signature : E5CAB5DE
AccurateRip v2 signature : 86A812B5->Accurately ripped (v1+v2, confidence 41+18/63)
StatisticsRead error : 0Jitter error (maybe fixed) : 0Retry sector count : 0Damaged sector count : 0

Track 09 Track gain : -0.77 dB
Peak : 0.589783
CRC32 hash (test run) : 4BD93A50
CRC32 hash : 4BD93A50
CRC32 hash (skip zero) : CB9C5288
AccurateRip v1 signature : 7A719553
AccurateRip v2 signature : 57D5B88D->Accurately ripped (v1+v2, confidence 42+18/64)
StatisticsRead error : 0Jitter error (maybe fixed) : 0Retry sector count : 0Damaged sector count : 0

Track 10 Track gain : -7.51 dB
Peak : 0.944153
CRC32 hash (test run) : 0857FFFC
CRC32 hash : 0857FFFC
CRC32 hash (skip zero) : A37BF54E
AccurateRip v1 signature : 4AA6CA41
AccurateRip v2 signature : 25108913->Accurately ripped (v1+v2, confidence 42+18/64)
StatisticsRead error : 0Jitter error (maybe fixed) : 0Retry sector count : 0Damaged sector count : 0

Track 11 Track gain : -6.14 dB
Peak : 0.944153
CRC32 hash (test run) : 5124E74D
CRC32 hash : 5124E74D
CRC32 hash (skip zero) : 87BE160D
AccurateRip v1 signature : 0B07B47B
AccurateRip v2 signature : 57676AEB->Accurately ripped (v1+v2, confidence 41+18/63)
StatisticsRead error : 0Jitter error (maybe fixed) : 0Retry sector count : 0Damaged sector count : 0

Track 12
Pre-gap length : 00:01:73 Track gain : -6.56 dB
Peak : 0.944153
CRC32 hash (test run) : 71DDFCFF
CRC32 hash : 71DDFCFF
CRC32 hash (skip zero) : 6F00A992
AccurateRip v1 signature : 5094EFA4
AccurateRip v2 signature : AE55F9B6->Accurately ripped (v1+v2, confidence 42+18/64)
StatisticsRead error : 0Jitter error (maybe fixed) : 0Retry sector count : 0Damaged sector count : 0

Track 13 Track gain : -6.83 dB
Peak : 0.966522
CRC32 hash (test run) : 19127416
CRC32 hash : 19127416
CRC32 hash (skip zero) : B10BDF7E
AccurateRip v1 signature : 638D1217
AccurateRip v2 signature : 34ECC126->Accurately ripped (v1+v2, confidence 41+16/61)
StatisticsRead error : 0Jitter error (maybe fixed) : 0Retry sector count : 0Damaged sector count : 0

Track 14 Track gain : -5.85 dB
Peak : 0.999969
CRC32 hash (test run) : 715B842D
CRC32 hash : 715B842D
CRC32 hash (skip zero) : 578DF1EC
AccurateRip v1 signature : 664479CD
AccurateRip v2 signature : 839CA434->Accurately ripped (v1+v2, confidence 42+18/64)
StatisticsRead error : 0Jitter error (maybe fixed) : 0Retry sector count : 0Damaged sector count : 0

Track 15 Track gain : 2.71 dB
Peak : 0.375885
CRC32 hash (test run) : E83C29BC
CRC32 hash : E83C29BC
CRC32 hash (skip zero) : CB9B8C69
AccurateRip v1 signature : C9A881A2
AccurateRip v2 signature : EAF54F71->Accurately ripped (v1+v2, confidence 42+18/64)
StatisticsRead error : 0Jitter error (maybe fixed) : 0Retry sector count : 0Damaged sector count : 0

Track 16 Track gain : -7.00 dB
Peak : 0.944153
CRC32 hash (test run) : EF16CFA0
CRC32 hash : EF16CFA0
CRC32 hash (skip zero) : 4A426B39
AccurateRip v1 signature : 20EF4855
AccurateRip v2 signature : 018EAA19->Accurately ripped (v1+v2, confidence 42+18/64)
StatisticsRead error : 0Jitter error (maybe fixed) : 0Retry sector count : 0Damaged sector count : 0

Track 17 Track gain : -6.60 dB
Peak : 0.999969
CRC32 hash (test run) : 88BE7FFF
CRC32 hash : 88BE7FFF
CRC32 hash (skip zero) : 9FA906D8
AccurateRip v1 signature : 67FF0457
AccurateRip v2 signature : B9A45093->Accurately ripped (v1+v2, confidence 41+18/63)
StatisticsRead error : 0Jitter error (maybe fixed) : 0Retry sector count : 0Damaged sector count : 0

Track 18 Track gain : 1.13 dB
Peak : 0.501221
CRC32 hash (test run) : 637ADF05
CRC32 hash : 637ADF05
CRC32 hash (skip zero) : 5DBD4D14
AccurateRip v1 signature : 7419748E
AccurateRip v2 signature : 67CDC1C4->Accurately ripped (v1+v2, confidence 42+18/64)
StatisticsRead error : 0Jitter error (maybe fixed) : 0Retry sector count : 0Damaged sector count : 0

No errors occurred

End of status report

--BEGIN XLD SIGNATURE--
GJQgTRKz2.8NB0lJcF2oBxja3k_LEwmTS7yFRMlSM5LZDNZWG8vWFF9HMHZl2BDHTLn8s0C25Gp2q6aGVCavcm.0tViHCcwx6Rggz7C
--END XLD SIGNATURE--

Many thanks to the original uploader: Olaf der Weisse
DOWNLOAD LINKS:
(Premium Recommended)


All above links are interchangable. No password

Direct Download

Tags: Generation

Saga - Generation 13 (1995) Download via Hotfile Rapidshare Fileserve Megaupload & FileSonic, Saga - Generation 13 (1995) free torrent downloads included crack, serial, keygen.


Attention!Information

Members of Guest cannot leave comments.