Gene Loves Jezebel - Promise (1983)

Download Now

Gene Loves Jezebel - Promise (1983)

Gene Loves Jezebel - Promise (1983)
EAC Rip | FLAC (tracks & cue & log) | 293 MB | MP3 CBR 320 kbps | 130 MB | Scans | 46:55
Genre: Alternative Rock / Glam Rock / Goth Rock | Country: USA | Label: Situation Two | SITL 7CD

"If bands like Siouxsie and the Banshees and Bauhaus can be considered the founders of post-punk glam, laying the foundations of what would turn into goth rock, then Gene Loves Jezebel followed closely in their footsteps with the debut, Promise. Careening, wailing guitar is matched by careening, wailing vocals from the two brothers, while forceful, semi-tribal drumming underlay everything on display. John Brand's production balances out brute force with careful texturing, allowing the group to showcase their power chops as well as their calmer, moodier side."

Gene Loves Jezebel - Promise (1983)

discogs
allmusic


Tracklist:

1.Upstairs
2.Bruises
3.Pop Tarantula
4.Screaming For Emmalene
5.Scheming
6.Bread From Heaven
7.Influenza
8.Shower Me With Brittle Punches
9.Wraps And Arms
10.Psychological Problems
11.So Young (Heave Hard Heave Ho)
12.No Voodoo Dollies
13.Punch Drunk

Exact Audio Copy V1.0 beta 3 from 29. August 2011

EAC extraction logfile from 21. April 2015, 12:13

Gene Loves Jezebel / Promise

Used drive : ATAPI iHBS212 2 Adapter: 3 ID: 0

Read mode : Secure
Utilize accurate stream : Yes
Defeat audio cache : Yes
Make use of C2 pointers : No

Read offset correction

: 6
Overread into Lead-In and Lead-Out : No
Fill up missing offset samples with silence : Yes
Delete leading and trailing silent blocks : No
Null samples used in CRC calculations : Yes
Used interface
: Native Win32 interface for Win NT & 2000
Gap handling
: Appended to previous track

Used output format : User Defined Encoder
Selected bitrate : 128 kBit/s
Quality : High
Add ID3 tag : No
Command line compressor : C:\Program Files (x86)\Exact Audio Copy\Flac\flac.exe
Additional command line options : -8 -V -T "ARTIST=%artist%" -T "TITLE=%title%" -T "ALBUM=%albumtitle%" -T "DATE=%year%" -T "TRACKNUMBER=%tracknr%" -T "TOTALTRACKS=%numtracks%" -T "GENRE=%genre%" -T "ALBUMARTIST=%albumartist%" -T "ALBUM ARTIST=%albumartist%" -T "COMMENT=EAC Secure Mode, Test & Copy, AccurateRip, FLAC -8" %source%

TOC of the extracted CD Track | Start | Length | Start sector | End sector
--1 | 0:00.65 | 3:17.52 | 65 | 14891 2 | 3:18.42 | 3:38.38 | 14892 | 31279 3 | 6:57.05 | 3:09.65 | 31280 | 45519 4 | 10:06.70 | 2:58.02 | 45520 | 58871 5 | 13:04.72 | 6:25.30 | 58872 | 87776 6 | 19:30.27 | 4:15.00 | 87777 | 106901 7 | 23:45.27 | 3:42.25 | 106902 | 123576 8 | 27:27.52 | 2:50.05 | 123577 | 136331 9 | 30:17.57 | 4:00.48 | 136332 | 154379
10 | 34:18.30 | 3:44.17 | 154380 | 171196
11 | 38:02.47 | 3:25.05 | 171197 | 186576
12 | 41:27.52 | 3:03.18 | 186577 | 200319
13 | 44:30.70 | 2:24.15 | 200320 | 211134

Track 1 Filename C:\Users\Rob\Desktop\Uploads\Gene Loves Jezebel - Promise (1983) [FLAC] CLA\01 - Upstairs.wav Pre-gap length 0:00:02.65 Peak level 76.3 %
Extraction speed 5.2 X
Track quality 100.0 %
Test CRC D68B546B
Copy CRC D68B546B
Accurately ripped (confidence 1) [79E7B172] (AR v1)
Copy OK

Track 2 Filename C:\Users\Rob\Desktop\Uploads\Gene Loves Jezebel - Promise (1983) [FLAC] CLA\02 - Bruises.wav Peak level 84.7 %
Extraction speed 5.9 X
Track quality 100.0 %
Test CRC 5297628E
Copy CRC 5297628E
Accurately ripped (confidence 1) [39DEABC4] (AR v1)
Copy OK

Track 3 Filename C:\Users\Rob\Desktop\Uploads\Gene Loves Jezebel - Promise (1983) [FLAC] CLA\03 - Pop Tarantula.wav Peak level 77.7 %
Extraction speed 5.0 X
Track quality 99.9 %
Test CRC 9875B793
Copy CRC 9875B793
Accurately ripped (confidence 1) [639F33E7] (AR v1)
Copy OK

Track 4 Filename C:\Users\Rob\Desktop\Uploads\Gene Loves Jezebel - Promise (1983) [FLAC] CLA\04 - Screaming For Emmalene.wav Peak level 72.3 %
Extraction speed 6.5 X
Track quality 100.0 %
Test CRC 9C962AC0
Copy CRC 9C962AC0
Accurately ripped (confidence 1) [95D2B98D] (AR v1)
Copy OK

Track 5 Filename C:\Users\Rob\Desktop\Uploads\Gene Loves Jezebel - Promise (1983) [FLAC] CLA\05 - Scheming.wav Peak level 71.8 %
Extraction speed 7.7 X
Track quality 100.0 %
Test CRC 30B0553A
Copy CRC 30B0553A
Accurately ripped (confidence 1) [7E3AA42B] (AR v1)
Copy OK

Track 6 Filename C:\Users\Rob\Desktop\Uploads\Gene Loves Jezebel - Promise (1983) [FLAC] CLA\06 - Bread From Heaven.wav Peak level 42.2 %
Extraction speed 7.9 X
Track quality 100.0 %
Test CRC 7D7F6FFA
Copy CRC 7D7F6FFA
Accurately ripped (confidence 1) [1FF77DF7] (AR v1)
Copy OK

Track 7 Filename C:\Users\Rob\Desktop\Uploads\Gene Loves Jezebel - Promise (1983) [FLAC] CLA\07 - Influenza.wav Pre-gap length 0:00:00.35 Peak level 60.0 %
Extraction speed 8.2 X
Track quality 100.0 %
Test CRC 60E0C8E4
Copy CRC 60E0C8E4
Accurately ripped (confidence 1) [9BEB1C8E] (AR v1)
Copy OK

Track 8 Filename C:\Users\Rob\Desktop\Uploads\Gene Loves Jezebel - Promise (1983) [FLAC] CLA\08 - Shower Me With Brittle Punches.wav Peak level 92.3 %
Extraction speed 8.1 X
Track quality 100.0 %
Test CRC 02E0DF18
Copy CRC 02E0DF18
Accurately ripped (confidence 1) [3D85BFEF] (AR v1)
Copy OK

Track 9 Filename C:\Users\Rob\Desktop\Uploads\Gene Loves Jezebel - Promise (1983) [FLAC] CLA\09 - Wraps And Arms.wav Pre-gap length 0:00:00.57 Peak level 59.0 %
Extraction speed 8.9 X
Track quality 100.0 %
Test CRC F3732718
Copy CRC F3732718
Accurately ripped (confidence 1) [8252C501] (AR v1)
Copy OK

Track 10 Filename C:\Users\Rob\Desktop\Uploads\Gene Loves Jezebel - Promise (1983) [FLAC] CLA\10 - Psychological Problems.wav Peak level 71.4 %
Extraction speed 9.1 X
Track quality 100.0 %
Test CRC 4EDB3EEE
Copy CRC 4EDB3EEE
Accurately ripped (confidence 1) [AADE828A] (AR v1)
Copy OK

Track 11 Filename C:\Users\Rob\Desktop\Uploads\Gene Loves Jezebel - Promise (1983) [FLAC] CLA\11 - So Young (Heave Hard Heave Ho).wav Pre-gap length 0:00:00.47 Peak level 74.2 %
Extraction speed 9.3 X
Track quality 100.0 %
Test CRC 4FE2DEB3
Copy CRC 4FE2DEB3
Accurately ripped (confidence 1) [DB028251] (AR v1)
Copy OK

Track 12 Filename C:\Users\Rob\Desktop\Uploads\Gene Loves Jezebel - Promise (1983) [FLAC] CLA\12 - No Voodoo Dollies.wav Pre-gap length 0:00:00.50 Peak level 70.9 %
Extraction speed 7.4 X
Track quality 99.9 %
Test CRC 9DF31051
Copy CRC 9DF31051
Accurately ripped (confidence 1) [55486A9B] (AR v1)
Copy OK

Track 13 Filename C:\Users\Rob\Desktop\Uploads\Gene Loves Jezebel - Promise (1983) [FLAC] CLA\13 - Punch Drunk.wav Pre-gap length 0:00:00.63 Peak level 88.3 %
Extraction speed 9.1 X
Track quality 100.0 %
Test CRC 2C58157E
Copy CRC 2C58157E
Accurately ripped (confidence 1) [379AD040] (AR v1)
Copy OK

All tracks accurately ripped

No errors occurred

End of status report

==== Log checksum FC0C6B581954EB364A385E2869FCCEC1C6089EDEC04BF1264DE566E4F48FF4D1 ====

Personnel

Michael Aston: Lead Vocals
JP Aston: Lead Vocals Guitars, Backing Vocals
Ian C. Hudson: Guitars
Julianne Regan: Bass, Piano, Backing Vocals

All thanks to original releaser

Gene Loves Jezebel - Promise (1983)


Download Links:
(Premium Recommended)


All above links are interchangable. No password

Direct Download

Tags: Jezebel, Promise

Gene Loves Jezebel - Promise (1983) Download via Hotfile Rapidshare Fileserve Megaupload & FileSonic, Gene Loves Jezebel - Promise (1983) free torrent downloads included crack, serial, keygen.


Attention!Information

Members of Guest cannot leave comments.