Whitesnake - Lovehunter (1979) [ORG]

Download Now

Whitesnake - Lovehunter (1979) [ORG]

Whitesnake - Lovehunter (1979) [Non-Remastered]
EAC | FLAC-Image+CUE+LOG > 282 MB | Full Scans | MP3 CBR 320 Kbps > 100 MB
Hard Rock / Blues-Rock | TT - 41:23 minutes | Label: EMI Records, Ltd. # 752053-2

Lovehunter is the second studio album by the British band Whitesnake, released in 1979. The album charted at #29 on the UK Albums Chart.
"For all of its musical merits, Whitesnake's second full-length album, Lovehunter, is probably best remembered for its lurid cover painting (featuring a very naked female and a very large snake) rather than the band's ever-improving recipe for blues-infected hard rock. The group's performance in the studio environment remains strangely tame, however, and though blaming the producer seems like the obvious explanation, one has to wonder if this is the case when a veteran like Martin Birch (Deep Purple, Black Sabbath) is at the helm. Still, all things considered, the record is quite consistent; the band is equally at home rocking through the foot-stomping "Long Way From Home," and gliding through the bluesy ballad "Help Me Thro' the Day." "Walking in the Shadow of the Blues" combines near-perfect songwriting with one of Coverdale's maturest and most compelling lyrics, while the masterful slide guitar of Mickey Moody literally ignites the awesome title track. The gorgeously simple piano treatment of "We Wish You Well" closes the disc in fine fashion.

-- Review by Eduardo Rivadavia, allmusic.com"


Tracklist:

01. Long Way From Home
02. Walking In The Shadow Of The Blues
03. Help Me Thro' The Day
04. Medicine Man
05. You 'N' Me
06. Mean Business
07. Love Hunter
08. Outlaw
09. Rock 'N' Roll Women
10. We Wish You Well

Produced by Martin Birch.
Original Sound Recordings made by Sunburst Records, Ltd., 1982.

- David Coverdale: vocals
- Micky Moody: guitars
- Bernie Marsden: guitars, lead vocal on "Outlaw"
- Jon Lord: keyboards
- Neil Murray: bass
- Dave Dowle: drums

All thanks goes to edenika.

Exact Audio Copy V1.0 beta 1 from 15. November 2010

EAC extraction logfile from 2. June 2011, 23:23

Whitesnake / Lovehunter

Used drive : TSSTcorpCD/DVDW SH-S182M Adapter: 0 ID: 0

Read mode : Secure
Utilize accurate stream : Yes
Defeat audio cache : Yes
Make use of C2 pointers : No

Read offset correction

: 6
Overread into Lead-In and Lead-Out : No
Fill up missing offset samples with silence : Yes
Delete leading and trailing silent blocks : No
Null samples used in CRC calculations : Yes
Used interface
: Installed external ASPI interface

Used output format : Internal WAV Routines
Sample format : 44.100 Hz; 16 Bit; Stereo

TOC of the extracted CD Track | Start | Length | Start sector | End sector
--1 | 0:00.33 | 4:56.55 | 33 | 22287 2 | 4:57.13 | 4:24.42 | 22288 | 42129 3 | 9:21.55 | 4:39.40 | 42130 | 63094 4 | 14:01.20 | 3:59.63 | 63095 | 81082 5 | 18:01.08 | 3:30.07 | 81083 | 96839 6 | 21:31.15 | 3:48.60 | 96840 | 113999 7 | 25:20.00 | 5:39.05 | 114000 | 139429 8 | 30:59.05 | 4:03.68 | 139430 | 157722 9 | 35:02.73 | 4:45.47 | 157723 | 179144
10 | 39:48.45 | 1:34.68 | 179145 | 186262

Range status and errors

Selected range Filename C:\EAC rips\Whitesnake - Lovehunter.wav Peak level 87.9 %
Extraction speed 0.2 X
Range quality 99.9 %
Test CRC 1ABD978F
Copy CRC 1ABD978F
Copy OK

No errors occurred


AccurateRip summary

Track 1 accurately ripped (confidence 13) [F5C733FB]
Track 2 accurately ripped (confidence 13) [2618AEDA]
Track 3 accurately ripped (confidence 13) [FECC1B85]
Track 4 accurately ripped (confidence 12) [D5C2EBFF]
Track 5 accurately ripped (confidence 12) [4B018CDB]
Track 6 accurately ripped (confidence 12) [4D0F7239]
Track 7 accurately ripped (confidence 12) [DC9112D1]
Track 8 accurately ripped (confidence 12) [891E5519]
Track 9 accurately ripped (confidence 12) 4E8750F
Track 10 accurately ripped (confidence 11) [4E9E3099]

All tracks accurately ripped

End of status report

==== Log checksum 243F38B01D2A7750B7F28E28D1B37DC41338FEC40E79424B9155BE91743CF2D1 ====
DOWNLOAD
(Premium Recommended)


All above links are interchangable. No password

Direct Download

Tags: Whitesnake, Lovehunter

Whitesnake - Lovehunter (1979) [ORG] Download via Hotfile Rapidshare Fileserve Megaupload & FileSonic, Whitesnake - Lovehunter (1979) [ORG] free torrent downloads included crack, serial, keygen.


Attention!Information

Members of Guest cannot leave comments.