Kenso - Live In USA at NEARfest 2005 (2006)

Download Now

Kenso - Live In USA at NEARfest 2005 (2006)

Kenso - Live In USA at NEARfest 2005 (2006)
DVD9 | MPEG-2, NTSC 16:9 (720x480), 29.970 fps, VBR 7500 Kbps (max)
LPCM 2.0, 1536 Kbps | Sub: Japanese | Scans Included | ~ 7,31 Gb | RAR 5% Recovery
Progressive Rock | 02:01:31 | Pathograph #PADV-03

"Kenso is without any doubt the most famous nippon Progressive jazz-rock band: it has built its reputation on an innate gift and an uncommon virtuosity of its musicians obviously evoking Brand X. From time to time, our ears of experienced melomaniacs can also be cherished by reminiscences of the Canterbury school. The virtuosity, the inventiveness and the great sense of melody give the music of Kenso a great fineness and an unreached wealth."

Prog Archives | Discogs | All Music
***************

Kenso - Live In USA at NEARfest 2005 (2006)

Track List:

01. The Sea
02. Part 2/Anesthesia part 2
03. Sora ni hikaru (Shining in the sky)
04. Taro to iu ikikata
05. Fist of fury
06. Anokoro Moby Dick to
07. Sokowamaa Sokohakatonaku
08. Bifuka
09. GIPS
10. Hyoto
11. Tjandi Bentar
12. Keyboard solo ("Allentown", Billy Joel) JOELSONGS
13. Echi dal Foro Romano
14. A single moment of life
15. Let us go with the child who makes wishes come true
16. I/Les phases de la lune I
17. II/Les phases de la lune II
18. The ancient in my brain
19. Good days bad days
20. Release yourself

Kenso:

Yoshihisa Shimizu - guitars
Kenichi Oguchi - keyboards
Kenichi Mitsuda - keyboards
Shunji Saegusa - bass
Keisuke Komori - drums

General
Complete name : F:\_000\Kenso - Live in USA at NEARfest 2005 (2006)\VIDEO_TS\VTS_01_1.VOB
Format
: MPEG-PS
File size
: 1 024 MiB
Duration
: 21mn 18s
Overall bit rate mode : Variable
Overall bit rate : 6 720 Kbps

Video
ID : 224 (0xE0)
Format
: MPEG Video
Format version : Version 2
Format profile : [email protected]
Format settings, BVOP : Yes
Format settings, Matrix : Custom
Format settings, GOP : Variable
Format settings, picture structure : Frame
Duration
: 21mn 18s
Bit rate mode : Variable
Bit rate
: 5 050 Kbps
Maximum bit rate : 7 500 Kbps
Width
: 720 pixels
Height
: 480 pixels
Display aspect ratio : 16:9
Frame rate
: 29.970 fps
Standard
: NTSC
Color space
: YUV
Chroma subsampling

: 4:2:0
Bit depth
: 8 bits
Scan type
: Interlaced
Scan order
: Top Field First
Compression mode : Lossy
Bits/(Pixel*Frame)

: 0.488
Time code of first frame : 00:00:00;00
Time code source : Group of pictures header
GOP, Open/Closed : Open
Stream size
: 769 MiB (75%)
GOP, Open/Closed of first frame : Closed

Audio
ID : 189 (0xBD)-160 (0xA0)
Format
: PCM
Format settings, Endianness : Big
Format settings, Sign : Signed
Muxing mode
: DVD-Video
Duration
: 21mn 17s
Bit rate mode : Constant
Bit rate
: 1 536 Kbps
Channel(s)
: 2 channels
Sampling rate : 48.0 KHz
Bit depth
: 16 bits
Stream size
: 234 MiB (23%)

Menu

General
Complete name : F:\_000\Kenso - Live in USA at NEARfest 2005 (2006)\VIDEO_TS\VTS_01_2.VOB
Format
: MPEG-PS
File size
: 1 024 MiB
Duration
: 20mn 45s
Overall bit rate mode : Variable
Overall bit rate : 6 898 Kbps

Video
ID : 224 (0xE0)
Format
: MPEG Video
Format version : Version 2
Format profile : [email protected]
Format settings, BVOP : Yes
Format settings, Matrix : Custom
Format settings, GOP : M=3, N=15
Format settings, picture structure : Frame
Duration
: 20mn 44s
Bit rate mode : Variable
Bit rate
: 5 224 Kbps
Maximum bit rate : 7 500 Kbps
Width
: 720 pixels
Height
: 480 pixels
Display aspect ratio : 16:9
Frame rate
: 29.970 fps
Standard
: NTSC
Color space
: YUV
Chroma subsampling

: 4:2:0
Bit depth
: 8 bits
Scan type
: Interlaced
Scan order
: Top Field First
Compression mode : Lossy
Bits/(Pixel*Frame)

: 0.504
Time code of first frame : 00:21:18;10
Time code source : Group of pictures header
GOP, Open/Closed : Open
Stream size
: 775 MiB (76%)

Audio
ID : 189 (0xBD)-160 (0xA0)
Format
: PCM
Format settings, Endianness : Big
Format settings, Sign : Signed
Muxing mode
: DVD-Video
Duration
: 20mn 45s
Bit rate mode : Constant
Bit rate
: 1 536 Kbps
Channel(s)
: 2 channels
Sampling rate : 48.0 KHz
Bit depth
: 16 bits
Delay relative to video : -757ms
Stream size
: 228 MiB (22%)

Menu

General
Complete name : F:\_000\Kenso - Live in USA at NEARfest 2005 (2006)\VIDEO_TS\VTS_01_3.VOB
Format
: MPEG-PS
File size
: 1 024 MiB
Duration
: 20mn 30s
Overall bit rate mode : Variable
Overall bit rate : 6 982 Kbps

Video
ID : 224 (0xE0)
Format
: MPEG Video
Format version : Version 2
Format profile : [email protected]
Format settings, BVOP : Yes
Format settings, Matrix : Custom
Format settings, GOP : M=3, N=15
Format settings, picture structure : Frame
Duration
: 20mn 29s
Bit rate mode : Variable
Bit rate
: 5 307 Kbps
Maximum bit rate : 7 500 Kbps
Width
: 720 pixels
Height
: 480 pixels
Display aspect ratio : 16:9
Frame rate
: 29.970 fps
Standard
: NTSC
Color space
: YUV
Chroma subsampling

: 4:2:0
Bit depth
: 8 bits
Scan type
: Interlaced
Scan order
: Top Field First
Compression mode : Lossy
Bits/(Pixel*Frame)

: 0.512
Time code of first frame : 00:42:03;12
Time code source : Group of pictures header
GOP, Open/Closed : Open
Stream size
: 778 MiB (76%)

Audio
ID : 189 (0xBD)-160 (0xA0)
Format
: PCM
Format settings, Endianness : Big
Format settings, Sign : Signed
Muxing mode
: DVD-Video
Duration
: 20mn 30s
Bit rate mode : Constant
Bit rate
: 1 536 Kbps
Channel(s)
: 2 channels
Sampling rate : 48.0 KHz
Bit depth
: 16 bits
Delay relative to video : -630ms
Stream size
: 225 MiB (22%)

Menu

General
Complete name : F:\_000\Kenso - Live in USA at NEARfest 2005 (2006)\VIDEO_TS\VTS_01_4.VOB
Format
: MPEG-PS
File size
: 1 024 MiB
Duration
: 20mn 22s
Overall bit rate mode : Variable
Overall bit rate : 7 028 Kbps

Video
ID : 224 (0xE0)
Format
: MPEG Video
Format version : Version 2
Format profile : [email protected]
Format settings, BVOP : Yes
Format settings, Matrix : Custom
Format settings, GOP : M=3, N=15
Format settings, picture structure : Frame
Duration
: 20mn 21s
Bit rate mode : Variable
Bit rate
: 5 352 Kbps
Maximum bit rate : 7 500 Kbps
Width
: 720 pixels
Height
: 480 pixels
Display aspect ratio : 16:9
Frame rate
: 29.970 fps
Standard
: NTSC
Color space
: YUV
Chroma subsampling

: 4:2:0
Bit depth
: 8 bits
Scan type
: Interlaced
Scan order
: Top Field First
Compression mode : Lossy
Bits/(Pixel*Frame)

: 0.517
Time code of first frame : 01:02:33;21
Time code source : Group of pictures header
GOP, Open/Closed : Open
Stream size
: 779 MiB (76%)

Audio
ID : 189 (0xBD)-160 (0xA0)
Format
: PCM
Format settings, Endianness : Big
Format settings, Sign : Signed
Muxing mode
: DVD-Video
Duration
: 20mn 22s
Bit rate mode : Constant
Bit rate
: 1 536 Kbps
Channel(s)
: 2 channels
Sampling rate : 48.0 KHz
Bit depth
: 16 bits
Delay relative to video : -842ms
Stream size
: 224 MiB (22%)

Menu

General
Complete name : F:\_000\Kenso - Live in USA at NEARfest 2005 (2006)\VIDEO_TS\VTS_01_5.VOB
Format
: MPEG-PS
File size
: 1 024 MiB
Duration
: 20mn 32s
Overall bit rate mode : Variable
Overall bit rate : 6 966 Kbps

Video
ID : 224 (0xE0)
Format
: MPEG Video
Format version : Version 2
Format profile : [email protected]
Format settings, BVOP : Yes
Format settings, Matrix : Custom
Format settings, GOP : Variable
Format settings, picture structure : Frame
Duration
: 20mn 32s
Bit rate mode : Variable
Bit rate
: 5 291 Kbps
Maximum bit rate : 7 500 Kbps
Width
: 720 pixels
Height
: 480 pixels
Display aspect ratio : 16:9
Frame rate
: 29.970 fps
Standard
: NTSC
Color space
: YUV
Chroma subsampling

: 4:2:0
Bit depth
: 8 bits
Scan type
: Interlaced
Scan order
: Top Field First
Compression mode : Lossy
Bits/(Pixel*Frame)

: 0.511
Time code of first frame : 01:05:45;23
Time code source : Group of pictures header
GOP, Open/Closed : Open
Stream size
: 778 MiB (76%)

Audio
ID : 189 (0xBD)-160 (0xA0)
Format
: PCM
Format settings, Endianness : Big
Format settings, Sign : Signed
Muxing mode
: DVD-Video
Duration
: 20mn 32s
Bit rate mode : Constant
Bit rate
: 1 536 Kbps
Channel(s)
: 2 channels
Sampling rate : 48.0 KHz
Bit depth
: 16 bits
Delay relative to video : -519ms
Stream size
: 226 MiB (22%)

Menu

General
Complete name : F:\_000\Kenso - Live in USA at NEARfest 2005 (2006)\VIDEO_TS\VTS_01_6.VOB
Format
: MPEG-PS
File size
: 866 MiB
Duration
: 18mn 10s
Overall bit rate mode : Variable
Overall bit rate : 6 663 Kbps

Video
ID : 224 (0xE0)
Format
: MPEG Video
Format version : Version 2
Format profile : [email protected]
Format settings, BVOP : Yes
Format settings, Matrix : Custom
Format settings, GOP : Variable
Format settings, picture structure : Frame
Duration
: 18mn 9s
Bit rate mode : Variable
Bit rate
: 4 994 Kbps
Maximum bit rate : 7 500 Kbps
Width
: 720 pixels
Height
: 480 pixels
Display aspect ratio : 16:9
Frame rate
: 29.970 fps
Standard
: NTSC
Color space
: YUV
Chroma subsampling

: 4:2:0
Bit depth
: 8 bits
Scan type
: Interlaced
Scan order
: Top Field First
Compression mode : Lossy
Bits/(Pixel*Frame)

: 0.482
Time code of first frame : 01:26:19;01
Time code source : Group of pictures header
GOP, Open/Closed : Open
Stream size
: 649 MiB (75%)

Audio
ID : 189 (0xBD)-160 (0xA0)
Format
: PCM
Format settings, Endianness : Big
Format settings, Sign : Signed
Muxing mode
: DVD-Video
Duration
: 18mn 10s
Bit rate mode : Constant
Bit rate
: 1 536 Kbps
Channel(s)
: 2 channels
Sampling rate : 48.0 KHz
Bit depth
: 16 bits
Delay relative to video : -756ms
Stream size
: 200 MiB (23%)

Menu

General
Complete name : F:\_000\Kenso - Live in USA at NEARfest 2005 (2006)\VIDEO_TS\VTS_03_1.VOB
Format
: MPEG-PS
File size
: 739 MiB
Duration
: 20mn 2s
Overall bit rate mode : Variable
Overall bit rate : 5 157 Kbps

Video
ID : 224 (0xE0)
Format
: MPEG Video
Format version : Version 2
Format profile : [email protected]
Format settings, BVOP : Yes
Format settings, Matrix : Custom
Format settings, GOP : Variable
Format settings, picture structure : Frame
Duration
: 20mn 2s
Bit rate mode : Variable
Bit rate
: 3 519 Kbps
Maximum bit rate : 6 500 Kbps
Width
: 720 pixels
Height
: 480 pixels
Display aspect ratio : 16:9
Frame rate
: 29.970 fps
Standard
: NTSC
Color space
: YUV
Chroma subsampling

: 4:2:0
Bit depth
: 8 bits
Scan type
: Interlaced
Scan order
: Top Field First
Compression mode : Lossy
Bits/(Pixel*Frame)

: 0.340
Time code of first frame : 00:00:00;00
Time code source : Group of pictures header
GOP, Open/Closed : Open
Stream size
: 504 MiB (68%)
GOP, Open/Closed of first frame : Closed

Audio
ID : 189 (0xBD)-160 (0xA0)
Format
: PCM
Format settings, Endianness : Big
Format settings, Sign : Signed
Muxing mode
: DVD-Video
Duration
: 20mn 2s
Bit rate mode : Constant
Bit rate
: 1 536 Kbps
Channel(s)
: 2 channels
Sampling rate : 48.0 KHz
Bit depth
: 16 bits
Stream size
: 220 MiB (30%)

Menu

General
Complete name : F:\_000\Kenso - Live in USA at NEARfest 2005 (2006)\VIDEO_TS\VTS_04_1.VOB
Format
: MPEG-PS
File size
: 75.8 MiB
Duration
: 1mn 32s
Overall bit rate mode : Variable
Overall bit rate : 6 866 Kbps

Video
ID : 224 (0xE0)
Format
: MPEG Video
Format version : Version 2
Format profile : [email protected]
Format settings, BVOP : Yes
Format settings, Matrix : Custom
Format settings, GOP : Variable
Format settings, picture structure : Frame
Duration
: 1mn 32s
Bit rate mode : Variable
Bit rate
: 5 193 Kbps
Maximum bit rate : 7 500 Kbps
Width
: 720 pixels
Height
: 480 pixels
Display aspect ratio : 16:9
Frame rate
: 29.970 fps
Standard
: NTSC
Color space
: YUV
Chroma subsampling

: 4:2:0
Bit depth
: 8 bits
Scan type
: Interlaced
Scan order
: Top Field First
Compression mode : Lossy
Bits/(Pixel*Frame)

: 0.501
Time code of first frame : 01:00:00;00
Time code source : Group of pictures header
GOP, Open/Closed : Open
Stream size
: 57.3 MiB (76%)
GOP, Open/Closed of first frame : Closed

Audio
ID : 189 (0xBD)-160 (0xA0)
Format
: PCM
Format settings, Endianness : Big
Format settings, Sign : Signed
Muxing mode
: DVD-Video
Duration
: 1mn 32s
Bit rate mode : Constant
Bit rate
: 1 536 Kbps
Channel(s)
: 2 channels
Sampling rate : 48.0 KHz
Bit depth
: 16 bits
Stream size
: 16.9 MiB (22%)

Menu

General
Complete name : F:\_000\Kenso - Live in USA at NEARfest 2005 (2006)\VIDEO_TS\VTS_06_1.VOB
Format
: MPEG-PS
File size
: 118 MiB
Duration
: 3mn 12s
Overall bit rate mode : Variable
Overall bit rate : 5 149 Kbps

Video
ID : 224 (0xE0)
Format
: MPEG Video
Format version : Version 2
Format profile : [email protected]
Format settings, BVOP : Yes
Format settings, Matrix : Custom
Format settings, GOP : Variable
Format settings, picture structure : Frame
Duration
: 3mn 12s
Bit rate mode : Variable
Bit rate
: 3 511 Kbps
Maximum bit rate : 6 500 Kbps
Width
: 720 pixels
Height
: 480 pixels
Display aspect ratio : 4:3
Frame rate
: 29.970 fps
Standard
: NTSC
Color space
: YUV
Chroma subsampling

: 4:2:0
Bit depth
: 8 bits
Scan type
: Interlaced
Scan order
: Top Field First
Compression mode : Lossy
Bits/(Pixel*Frame)

: 0.339
Time code of first frame : 00:00:00;00
Time code source : Group of pictures header
GOP, Open/Closed : Open
Stream size
: 80.4 MiB (68%)
GOP, Open/Closed of first frame : Closed

Audio
ID : 189 (0xBD)-160 (0xA0)
Format
: PCM
Format settings, Endianness : Big
Format settings, Sign : Signed
Muxing mode
: DVD-Video
Duration
: 3mn 12s
Bit rate mode : Constant
Bit rate
: 1 536 Kbps
Channel(s)
: 2 channels
Sampling rate : 48.0 KHz
Bit depth
: 16 bits
Stream size
: 35.2 MiB (30%)

Menu

General
Complete name : F:\_000\Kenso - Live in USA at NEARfest 2005 (2006)\VIDEO_TS\VTS_07_1.VOB
Format
: MPEG-PS
File size
: 158 MiB
Duration
: 4mn 17s
Overall bit rate mode : Variable
Overall bit rate : 5 146 Kbps

Video
ID : 224 (0xE0)
Format
: MPEG Video
Format version : Version 2
Format profile : [email protected]
Format settings, BVOP : Yes
Format settings, Matrix : Custom
Format settings, GOP : Variable
Format settings, picture structure : Frame
Duration
: 4mn 17s
Bit rate mode : Variable
Bit rate
: 3 508 Kbps
Maximum bit rate : 6 500 Kbps
Width
: 720 pixels
Height
: 480 pixels
Display aspect ratio : 4:3
Frame rate
: 29.970 fps
Standard
: NTSC
Color space
: YUV
Chroma subsampling

: 4:2:0
Bit depth
: 8 bits
Scan type
: Interlaced
Scan order
: Top Field First
Compression mode : Lossy
Bits/(Pixel*Frame)

: 0.339
Time code of first frame : 00:00:00;00
Time code source : Group of pictures header
GOP, Open/Closed : Open
Stream size
: 108 MiB (68%)
GOP, Open/Closed of first frame : Closed

Audio
ID : 189 (0xBD)-160 (0xA0)
Format
: PCM
Format settings, Endianness : Big
Format settings, Sign : Signed
Muxing mode
: DVD-Video
Duration
: 4mn 17s
Bit rate mode : Constant
Bit rate
: 1 536 Kbps
Channel(s)
: 2 channels
Sampling rate : 48.0 KHz
Bit depth
: 16 bits
Stream size
: 47.1 MiB (30%)

Menu

Kenso - Live In USA at NEARfest 2005 (2006)

Kenso - Live In USA at NEARfest 2005 (2006)

Kenso - Live In USA at NEARfest 2005 (2006)

Kenso - Live In USA at NEARfest 2005 (2006)

Kenso - Live In USA at NEARfest 2005 (2006)

Kenso - Live In USA at NEARfest 2005 (2006)

Kenso - Live In USA at NEARfest 2005 (2006)

Kenso - Live In USA at NEARfest 2005 (2006)

Kenso - Live In USA at NEARfest 2005 (2006)

All thanks go to tatuk


DOWNLOAD LINKS
(Premium Recommended)

Rapidgator.net:
n37lf.K.L.I.USA.a.NEAR.2005.2006.part01.rar.html
n37lf.K.L.I.USA.a.NEAR.2005.2006.part02.rar.html
n37lf.K.L.I.USA.a.NEAR.2005.2006.part03.rar.html
n37lf.K.L.I.USA.a.NEAR.2005.2006.part04.rar.html
n37lf.K.L.I.USA.a.NEAR.2005.2006.part05.rar.html
n37lf.K.L.I.USA.a.NEAR.2005.2006.part06.rar.html
n37lf.K.L.I.USA.a.NEAR.2005.2006.part07.rar.html
n37lf.K.L.I.USA.a.NEAR.2005.2006.part08.rar.html
n37lf.K.L.I.USA.a.NEAR.2005.2006.part09.rar.html
n37lf.K.L.I.USA.a.NEAR.2005.2006.part10.rar.html
n37lf.K.L.I.USA.a.NEAR.2005.2006.part11.rar.html
n37lf.K.L.I.USA.a.NEAR.2005.2006.part12.rar.html
n37lf.K.L.I.USA.a.NEAR.2005.2006.part13.rar.html
n37lf.K.L.I.USA.a.NEAR.2005.2006.part14.rar.html
n37lf.K.L.I.USA.a.NEAR.2005.2006.part15.rar.html

Uploaded.net:
n37lf.K.L.I.USA.a.NEAR.2005.2006.part01.rar
n37lf.K.L.I.USA.a.NEAR.2005.2006.part02.rar
n37lf.K.L.I.USA.a.NEAR.2005.2006.part03.rar
n37lf.K.L.I.USA.a.NEAR.2005.2006.part04.rar
n37lf.K.L.I.USA.a.NEAR.2005.2006.part05.rar
n37lf.K.L.I.USA.a.NEAR.2005.2006.part06.rar
n37lf.K.L.I.USA.a.NEAR.2005.2006.part07.rar
n37lf.K.L.I.USA.a.NEAR.2005.2006.part08.rar
n37lf.K.L.I.USA.a.NEAR.2005.2006.part09.rar
n37lf.K.L.I.USA.a.NEAR.2005.2006.part10.rar
n37lf.K.L.I.USA.a.NEAR.2005.2006.part11.rar
n37lf.K.L.I.USA.a.NEAR.2005.2006.part12.rar
n37lf.K.L.I.USA.a.NEAR.2005.2006.part13.rar
n37lf.K.L.I.USA.a.NEAR.2005.2006.part14.rar
n37lf.K.L.I.USA.a.NEAR.2005.2006.part15.rar

Nitroflare.com
n37lf.K.L.I.USA.a.NEAR.2005.2006.part01.rar
n37lf.K.L.I.USA.a.NEAR.2005.2006.part02.rar
n37lf.K.L.I.USA.a.NEAR.2005.2006.part03.rar
n37lf.K.L.I.USA.a.NEAR.2005.2006.part04.rar
n37lf.K.L.I.USA.a.NEAR.2005.2006.part05.rar
n37lf.K.L.I.USA.a.NEAR.2005.2006.part06.rar
n37lf.K.L.I.USA.a.NEAR.2005.2006.part07.rar
n37lf.K.L.I.USA.a.NEAR.2005.2006.part08.rar
n37lf.K.L.I.USA.a.NEAR.2005.2006.part09.rar
n37lf.K.L.I.USA.a.NEAR.2005.2006.part10.rar
n37lf.K.L.I.USA.a.NEAR.2005.2006.part11.rar
n37lf.K.L.I.USA.a.NEAR.2005.2006.part12.rar
n37lf.K.L.I.USA.a.NEAR.2005.2006.part13.rar
n37lf.K.L.I.USA.a.NEAR.2005.2006.part14.rar
n37lf.K.L.I.USA.a.NEAR.2005.2006.part15.rar

Uploadable.ch:
n37lf.K.L.I.USA.a.NEAR.2005.2006.part01.rar
n37lf.K.L.I.USA.a.NEAR.2005.2006.part02.rar
n37lf.K.L.I.USA.a.NEAR.2005.2006.part03.rar
n37lf.K.L.I.USA.a.NEAR.2005.2006.part04.rar
n37lf.K.L.I.USA.a.NEAR.2005.2006.part05.rar
n37lf.K.L.I.USA.a.NEAR.2005.2006.part06.rar
n37lf.K.L.I.USA.a.NEAR.2005.2006.part07.rar
n37lf.K.L.I.USA.a.NEAR.2005.2006.part08.rar
n37lf.K.L.I.USA.a.NEAR.2005.2006.part09.rar
n37lf.K.L.I.USA.a.NEAR.2005.2006.part10.rar
n37lf.K.L.I.USA.a.NEAR.2005.2006.part11.rar
n37lf.K.L.I.USA.a.NEAR.2005.2006.part12.rar
n37lf.K.L.I.USA.a.NEAR.2005.2006.part13.rar
n37lf.K.L.I.USA.a.NEAR.2005.2006.part14.rar
n37lf.K.L.I.USA.a.NEAR.2005.2006.part15.rar

Links are Interchangeable - No Password - Single Extraction

Direct Download

Tags: NEARfest

Kenso - Live In USA at NEARfest 2005 (2006) Download via Hotfile Rapidshare Fileserve Megaupload & FileSonic, Kenso - Live In USA at NEARfest 2005 (2006) free torrent downloads included crack, serial, keygen.


Attention!Information

Members of Guest cannot leave comments.