Colin Blunstone - Echo Bridge (1995)

Download Now

Colin Blunstone - Echo Bridge (1995)

Colin Blunstone - Echo Bridge (1995)
EAC | Flac(Image) + Cue + Log & MP3 CBR 320Kbps
1997 | Renaissance Records, RMED00125 | ~ 309 or 111 Mb | Scans(png) -> 283 Mb
Classic Rock / Pop Rock / Ballad

"Released in 1995, Echo Bridge was Colin Blunstone's first album of all-new material since 1979's Late Nights in Soho. (The intervening years had seen Blunstone focusing on singles and re-recording his best-known work on Colin Blunstone Sings His Greatest Hits.) Blunstone and producer Jon Sweet opt for a contemporary sound on Echo Bridge, with covers including Billy Bragg's "Levi Stubbs' Tears" and Art Garfunkel's hit "Breakaway..."


Tracklist:

01. Levi Stubbs Tears
02. Tearing The Good Things Down
03. The Radio Was Playing Johnny Come Lately
04. Everlasting Love
05. What Is Love?
06. Oxygen
07. If I Said
08. Best Is Yet To Come
09. Breakaway
10. I Want To Say A Prayer
11. She's Not There (Echo Bridge Version)

Exact Audio Copy V1.1 from 23. June 2015

EAC extraction logfile from 1. September 2015, 20:39

Colin Blunstone / Echo Bridge

Used drive : SONY DVD RW AD-7260S Adapter: 2 ID: 0

Read mode : Secure
Utilize accurate stream : Yes
Defeat audio cache : Yes
Make use of C2 pointers : No

Read offset correction

: 48
Overread into Lead-In and Lead-Out : No
Fill up missing offset samples with silence : Yes
Delete leading and trailing silent blocks : No
Null samples used in CRC calculations : Yes
Used interface
: Installed external ASPI interface
Gap handling
: Appended to previous track

Used output format : Internal WAV Routines
Sample format : 44.100 Hz; 16 Bit; Stereo

TOC of the extracted CD Track | Start | Length | Start sector | End sector
--1 | 0:00.00 | 4:27.25 | 0 | 20049 2 | 4:27.25 | 4:58.10 | 20050 | 42409 3 | 9:25.35 | 4:38.72 | 42410 | 63331 4 | 14:04.32 | 5:13.68 | 63332 | 86874 5 | 19:18.25 | 5:11.62 | 86875 | 110261 6 | 24:30.12 | 4:24.03 | 110262 | 130064 7 | 28:54.15 | 3:17.40 | 130065 | 144879 8 | 32:11.55 | 2:56.45 | 144880 | 158124 9 | 35:08.25 | 4:27.65 | 158125 | 178214
10 | 39:36.15 | 4:57.30 | 178215 | 200519
11 | 44:33.45 | 2:28.55 | 200520 | 211674

Track 1 Filename W:\Colin Blunstone\1995 - Echo Bridge (1997 Reissue)\01. Levi Stubbs Tears.wav Pre-gap length 0:00:02.00 Peak level 94.6 %
Extraction speed 2.4 X
Track quality 100.0 %
Test CRC 759087AC
Copy CRC 759087AC
Track not present in AccurateRip database
Copy OK

Track 2 Filename W:\Colin Blunstone\1995 - Echo Bridge (1997 Reissue)\02. Tearing The Good Things Down.wav Peak level 94.8 %
Extraction speed 2.4 X
Track quality 99.9 %
Test CRC F60F4BAC
Copy CRC F60F4BAC
Track not present in AccurateRip database
Copy OK

Track 3 Filename W:\Colin Blunstone\1995 - Echo Bridge (1997 Reissue)\03. The Radio Was Playing Johnny Come Lately.wav Peak level 94.8 %
Extraction speed 3.0 X
Track quality 100.0 %
Test CRC FEC576FD
Copy CRC FEC576FD
Track not present in AccurateRip database
Copy OK

Track 4 Filename W:\Colin Blunstone\1995 - Echo Bridge (1997 Reissue)\04. Everlasting Love.wav Peak level 92.7 %
Extraction speed 3.2 X
Track quality 100.0 %
Test CRC 138D62F9
Copy CRC 138D62F9
Track not present in AccurateRip database
Copy OK

Track 5 Filename W:\Colin Blunstone\1995 - Echo Bridge (1997 Reissue)\05. What Is Love.wav Peak level 92.4 %
Extraction speed 3.5 X
Track quality 100.0 %
Test CRC 9EE31E6A
Copy CRC 9EE31E6A
Track not present in AccurateRip database
Copy OK

Track 6 Filename W:\Colin Blunstone\1995 - Echo Bridge (1997 Reissue)\06. Oxygen.wav Peak level 96.8 %
Extraction speed 3.6 X
Track quality 100.0 %
Test CRC 36E9C789
Copy CRC 36E9C789
Track not present in AccurateRip database
Copy OK

Track 7 Filename W:\Colin Blunstone\1995 - Echo Bridge (1997 Reissue)\07. If I Said.wav Peak level 90.1 %
Extraction speed 3.1 X
Track quality 99.9 %
Test CRC 7D3A7665
Copy CRC 7D3A7665
Cannot be verified as accurate (confidence 1) [6C509CA8], AccurateRip returned [7FC971D9] (AR v2)
Copy OK

Track 8 Filename W:\Colin Blunstone\1995 - Echo Bridge (1997 Reissue)\08. Best Is Yet To Come.wav Peak level 88.9 %
Extraction speed 3.1 X
Track quality 99.9 %
Test CRC 6950F5F5
Copy CRC 6950F5F5
Cannot be verified as accurate (confidence 1) [FF779803], AccurateRip returned [09A30D83] (AR v2)
Copy OK

Track 9 Filename W:\Colin Blunstone\1995 - Echo Bridge (1997 Reissue)\09. Breakaway.wav Peak level 93.9 %
Extraction speed 4.0 X
Track quality 100.0 %
Test CRC 47E675D8
Copy CRC 47E675D8
Cannot be verified as accurate (confidence 1) [F2E9065A], AccurateRip returned [286CC6BA] (AR v2)
Copy OK

Track 10 Filename W:\Colin Blunstone\1995 - Echo Bridge (1997 Reissue)\10. I Want To Say A Prayer.wav Peak level 93.8 %
Extraction speed 4.2 X
Track quality 100.0 %
Test CRC B584291E
Copy CRC B584291E
Cannot be verified as accurate (confidence 1) [C85D52CD], AccurateRip returned [24FFC8B5] (AR v2)
Copy OK

Track 11 Filename W:\Colin Blunstone\1995 - Echo Bridge (1997 Reissue)\11. She's Not There (Echo Bridge Version).wav Pre-gap length 0:00:00.50 Peak level 96.9 %
Extraction speed 3.3 X
Track quality 99.9 %
Test CRC 755350AC
Copy CRC 755350AC
Cannot be verified as accurate (confidence 1) [AA97175E], AccurateRip returned [3C93F227] (AR v2)
Copy OK

5 track(s) could not be verified as accurate
6 track(s) not present in the AccurateRip database

No tracks could be verified as accurate
You may have a different pressing from the one(s) in the database

No errors occurred

End of status report

==== Log checksum 6AC7986257C39DAE8C72D157A6770811F05CA0EC892BDBD8D1BD96A9A6736075 ====

foobar2000 1.2.9 / Dynamic Range Meter 1.1.1
log date: 2015-09-09 17:42:13

Analyzed: Colin Blunstone / Echo Bridge

DR Peak RMS Duration Track

DR8 -0.48 dB -11.15 dB 4:27 01-Levi Stubbs Tears
DR9 -0.46 dB -11.99 dB 4:58 02-Tearing The Good Things Down
DR8 -0.46 dB -10.08 dB 4:39 03-The Radio Was Playing Johnny Come Lately
DR9 -0.65 dB -12.60 dB 5:14 04-Everlasting Love
DR9 -0.68 dB -12.20 dB 5:12 05-What Is Love?
DR8 -0.28 dB -11.17 dB 4:24 06-Oxygen
DR8 -0.90 dB -11.19 dB 3:18 07-If I Said
DR10 -1.02 dB -13.52 dB 2:57 08-Best Is Yet To Come
DR9 -0.54 dB -12.08 dB 4:28 09-Breakaway
DR9 -0.55 dB -12.33 dB 4:57 10-I Want To Say A Prayer
DR13 -0.27 dB -15.72 dB 2:29 11-She's Not There (Echo Bridge Version)

Number of tracks: 11
Official DR value: DR9

Samplerate: 44100 Hz
Channels: 2
Bits per sample: 16
Bitrate: 893 kbps
Codec: FLAC

[CUETools log; Date: 09.09.2015 17:41:58; Version: 2.1.4]
[CTDB TOCID: HkfMUUa9zWEOxW3n9bPeGbfVMso-] disk not present in database.
[AccurateRip ID: 00148b69-00b00b2c-9a0b060b] found.
Track [ CRC | V2 ] Status
01 [afffb65b|12d82a95] (0+0/0) No match
02 [cdb878b5|703382dd] (0+0/0) No match
03 [c39bb8c7|d8719a6e] (0+0/0) No match
04 [d0e4c615|f9cbfd54] (0+0/0) No match
05 [7c0ab68b|868fc617] (0+0/0) No match
06 [493acc11|4c2cd00a] (0+0/0) No match
07 [c512f26c|6c509ca8] (0+0/1) No match
08 [c908c7a7|ff779803] (0+0/1) No match
09 [3d8491b2|f2e9065a] (0+0/1) No match
10 [f2660de9|c85d52cd] (0+0/1) No match
11 [277e0b0c|aa97175e] (0+0/1) No match
Offsetted by -777:
01 [e87eca53] (0/0) No match
02 [d4663d71] (0/0) No match
03 [55db26df] (0/0) No match
04 [e4d54c13] (0/0) No match
05 a5490c3 (0/0) No match
06 [c19491f3] (0/0) No match
07 [6c77ec90] (0/1) No match (V2 was not tested)
08 [9687701f] (0/1) No match (V2 was not tested)
09 [7158e5d2] (0/1) No match (V2 was not tested)
10 [05a8a06a] (0/1) No match (V2 was not tested)
11 [31505139] (0/1) No match (V2 was not tested)

Track Peak [ CRC32 ] [W/O NULL] [ LOG ]
-- 96,9 [A4B85862] [F21C0C3D]
01 94,6 [759087AC] [9F4538DC] CRC32
02 94,8 [F60F4BAC] [2391860B] CRC32
03 94,8 [FEC576FD] 49DF146 CRC32
04 92,7 [138D62F9] [469578D4] CRC32
05 92,4 [9EE31E6A] [A51B80CF] CRC32
06 96,8 [36E9C789] [4E8E29FD] CRC32
07 90,1 [7D3A7665] [C2FB7594] CRC32
08 88,9 [6950F5F5] [31AC7468] CRC32
09 93,9 [47E675D8] [F065E77D] CRC32
10 93,8 584291E [0721DA0A] CRC32
11 96,9 [755350AC] [4E6DC223] CRC32

Colin Blunstone - Echo Bridge (1995)

Download Links:
(Premium Recommended)


All above links are interchangable. No password

Direct Download

Tags: Blunstone, Bridge

Colin Blunstone - Echo Bridge (1995) Download via Hotfile Rapidshare Fileserve Megaupload & FileSonic, Colin Blunstone - Echo Bridge (1995) free torrent downloads included crack, serial, keygen.


Attention!Information

Members of Guest cannot leave comments.