Sons Of Champlin - Follow Your Heart (1971) Remastered Reissue 2002

Download Now

Sons Of Champlin - Follow Your Heart (1971) Remastered Reissue 2002

Sons Of Champlin - Follow Your Heart (1971) Remastered Reissue 2002
EAC | FLAC | Tracks (Cue&Log) ~ 283 Mb (incl 5%) | Mp3 (CBR320) ~ 120 Mb (incl 5%) | Scans included
Genre: Psychedelic Rock, R&B, Early Jazz Rock | Label: Acadia | # ACA 8032 | Time: 00:40:07

"Recorded in Bruce Walford's studio in San Anselmo, this album sees the Sons in transition. Tim Cain, the sax player who co-founded the band with Bill Champlin back in 1965, had left, as had trumpet player Jim Beem. The stripped down band has an opportunity to stretch out on a number of fine Bill Champlin compositions, and the album also features the recorded debut of Terry Haggerty's "Follow Your Heart", a tune that would stay in the band's set list until Haggerty's departure in 2001 (a more polished version of the tune appeared on the out of print Circle of Love album, and there is a great performance on The Sons Live CD released in 1997). Soon after the release of this album Bill Champlin took the first of his sabaticals from the group, returning to a new rhythm section and a revised name (Yogi Phlegm) several months later. Not quite as good as Welcome to the Dance, this album still cooks pretty hard and is definitely worth a listen."

"The Sons, who had once called themselves the Sons of Champlin and would again, broke up in March 1970 but re-formed in the fall of the year when Capitol Records reminded them they owed another album on their contract and they decided they could use the advance to pay their back taxes. Saxophonist Tim Caine could not be persuaded to return, which left a quintet without horns, eliminating what had been a major element of their sound, since the horn playing of multi-instrumentalists Bill Champlin and Geoffrey Palmer had been dependent on Caine's arrangements. But that actually simplified the sound of a band that had always been a little busy musically. The songs on Follow Your Heart tended to be shorter than those on the band's previous albums, with more focused arrangements. There was more room for Terry Haggerty's inventive guitar playing to impress the listener, notably on the title track, and Champlin's songwriting was not lost in the lengthy improvisations and digressions. (As usual, however, the songwriting was credited to the group, albeit through the pseudonym "B.B. Heavy.") But the downside of the new Sons sound was that it was more cut and dried; ironically for an album called Follow Your Heart, the music seemed to be following the bandmembers' heads. This was certainly The Sons' most immediately accessible recording, and it might have been their most commercially successful one under other circumstances. But heads were rolling at the troubled Capitol Tower in the early '70s, and anyway, this was just a contractual-obligation release. The Sons only did a handful of West Coast gigs to support it in the spring of 1971 before breaking up again, so it never really had a chance.

Review by William Ruhlmann, Allmusic.com
"




Tracklist:

01. Before You Right Now (05:33)
02. Children Know (03:28)
03. Hey Children (04:53)
04. Follow Your Heart (05:50)
05. Beside You (01:46)
06. Headway (01:48)
07. The Child Continued (07:34)
08. A Sound Love (03:35)
09. Well Done (05:37)


Exact Audio Copy V1.0 beta 2 from 29. April 2011

EAC extraction logfile from 23. August 2013, 16:27

Sons Of Champlin / Follow Your Heart

Used drive : HL-DT-STDVD-RAM GH22LP20 Adapter: 0 ID: 0

Read mode : Secure
Utilize accurate stream : Yes
Defeat audio cache : Yes
Make use of C2 pointers : No

Read offset correction

: 102
Overread into Lead-In and Lead-Out : No
Fill up missing offset samples with silence : Yes
Delete leading and trailing silent blocks : No
Null samples used in CRC calculations : Yes
Used interface
: Installed external ASPI interface
Gap handling
: Appended to previous track

Used output format : User Defined Encoder
Selected bitrate : 256 kBit/s
Quality : High
Add ID3 tag : No
Command line compressor : C:\Program Files\Exact Audio Copy\Flac\FLAC.EXE
Additional command line options : -8 -V -T "ARTIST=%artist%" -T "TITLE=%title%" -T "ALBUM=%albumtitle%" -T "DATE=%year%" -T "TRACKNUMBER=%tracknr%" -T "TOTALTRACKS=%numtracks%" -T "GENRE=%genre%" -T "ALBUMARTIST=%albumartist%" -T "ALBUM ARTIST=%albumartist%

TOC of the extracted CD Track | Start | Length | Start sector | End sector
--1 | 0:00.00 | 5:33.07 | 0 | 24981 2 | 5:33.07 | 3:28.70 | 24982 | 40651 3 | 9:02.02 | 4:53.00 | 40652 | 62626 4 | 13:55.02 | 5:50.13 | 62627 | 88889 5 | 19:45.15 | 1:46.07 | 88890 | 96846 6 | 21:31.22 | 1:48.32 | 96847 | 104978 7 | 23:19.54 | 7:34.01 | 104979 | 139029 8 | 30:53.55 | 3:35.32 | 139030 | 155186 9 | 34:29.12 | 5:37.63 | 155187 | 180524

Track 1 Filename I:\Torrents 2\Sons Of Champlin - Follow Your Heart (1971) [FLAC] {Reissue 2002 Acadia}\01 - Before You Right Now.wav Pre-gap length 0:00:02.00 Peak level 100.0 %
Extraction speed 1.6 X
Track quality 100.0 %
Test CRC 6D05C786
Copy CRC 6D05C786
Track not present in AccurateRip database
Copy OK

Track 2 Filename I:\Torrents 2\Sons Of Champlin - Follow Your Heart (1971) [FLAC] {Reissue 2002 Acadia}\02 - Children Know.wav Pre-gap length 0:00:01.25 Peak level 100.0 %
Extraction speed 1.7 X
Track quality 100.0 %
Test CRC 5F34B8DF
Copy CRC 5F34B8DF
Track not present in AccurateRip database
Copy OK

Track 3 Filename I:\Torrents 2\Sons Of Champlin - Follow Your Heart (1971) [FLAC] {Reissue 2002 Acadia}\03 - Hey Children.wav Pre-gap length 0:00:01.60 Peak level 100.0 %
Extraction speed 2.0 X
Track quality 100.0 %
Test CRC C6532906
Copy CRC C6532906
Track not present in AccurateRip database
Copy OK

Track 4 Filename I:\Torrents 2\Sons Of Champlin - Follow Your Heart (1971) [FLAC] {Reissue 2002 Acadia}\04 - Follow Your Heart.wav Pre-gap length 0:00:02.27 Peak level 100.0 %
Extraction speed 2.2 X
Track quality 100.0 %
Test CRC 91B22AE3
Copy CRC 91B22AE3
Track not present in AccurateRip database
Copy OK

Track 5 Filename I:\Torrents 2\Sons Of Champlin - Follow Your Heart (1971) [FLAC] {Reissue 2002 Acadia}\05 - Beside You.wav Pre-gap length 0:00:01.65 Peak level 99.9 %
Extraction speed 1.9 X
Track quality 100.0 %
Test CRC 40A94642
Copy CRC 40A94642
Track not present in AccurateRip database
Copy OK

Track 6 Filename I:\Torrents 2\Sons Of Champlin - Follow Your Heart (1971) [FLAC] {Reissue 2002 Acadia}\06 - Headway.wav Pre-gap length 0:00:02.30 Peak level 100.0 %
Extraction speed 1.9 X
Track quality 100.0 %
Test CRC 184CD4F0
Copy CRC 184CD4F0
Track not present in AccurateRip database
Copy OK

Track 7 Filename I:\Torrents 2\Sons Of Champlin - Follow Your Heart (1971) [FLAC] {Reissue 2002 Acadia}\07 - The Child Continued.wav Pre-gap length 0:00:02.32 Peak level 100.0 %
Extraction speed 2.6 X
Track quality 100.0 %
Test CRC B0C56C9A
Copy CRC B0C56C9A
Track not present in AccurateRip database
Copy OK

Track 8 Filename I:\Torrents 2\Sons Of Champlin - Follow Your Heart (1971) [FLAC] {Reissue 2002 Acadia}\08 - A Sound Love.wav Pre-gap length 0:00:02.13 Peak level 100.0 %
Extraction speed 2.2 X
Track quality 99.9 %
Test CRC 3D55E53B
Copy CRC 3D55E53B
Track not present in AccurateRip database
Copy OK

Track 9 Filename I:\Torrents 2\Sons Of Champlin - Follow Your Heart (1971) [FLAC] {Reissue 2002 Acadia}\09 - Well Done.wav Pre-gap length 0:00:02.27 Peak level 100.0 %
Extraction speed 2.1 X
Track quality 99.9 %
Test CRC 0E7E46AD
Copy CRC 0E7E46AD
Track not present in AccurateRip database
Copy OK

None of the tracks are present in the AccurateRip database

No errors occurred

End of status report

==== Log checksum ABFA85E20575FDADEFC7812435703E6DDF302BB38356A8CB5CC407F9A4211451 ====

foobar2000 1.2 / Dynamic Range Meter 1.1.1
log date: 2015-09-09 18:17:34

Analyzed: Sons Of Champlin / Follow Your Heart

DR Peak RMS Duration Track

DR8 0.00 dB -10.19 dB 5:33 01-Before You Right Now
DR10 0.00 dB -13.46 dB 3:29 02-Children Know
DR10 0.00 dB -11.43 dB 4:53 03-Hey Children
DR9 0.00 dB -10.35 dB 5:50 04-Follow Your Heart
DR9 0.00 dB -11.88 dB 1:46 05-Beside You
DR9 0.00 dB -9.71 dB 1:48 06-Headway
DR7 0.00 dB -9.55 dB 7:34 07-The Child Continued
DR10 0.00 dB -13.08 dB 3:35 08-A Sound Love
DR8 0.00 dB -10.55 dB 5:38 09-Well Done

Number of tracks: 9
Official DR value: DR9

Samplerate: 44100 Hz
Channels: 2
Bits per sample: 16
Bitrate: 854 kbps
Codec: FLAC

Sons Of Champlin - Follow Your Heart (1971) Remastered Reissue 2002

Sons Of Champlin - Follow Your Heart (1971) Remastered Reissue 2002

All thanks to original releaser - liesabath
Password: designol

Download Links:
(Premium Recommended)


All above links are interchangable. No password

Direct Download

Tags: Champlin, Follow, Remastered, Reissue

Sons Of Champlin - Follow Your Heart (1971) Remastered Reissue 2002 Download via Hotfile Rapidshare Fileserve Megaupload & FileSonic, Sons Of Champlin - Follow Your Heart (1971) Remastered Reissue 2002 free torrent downloads included crack, serial, keygen.


Attention!Information

Members of Guest cannot leave comments.