Rod Stewart - Fly Me To The Moon...The Great American Songbook Volume V (2010)

Download Now

Rod Stewart - Fly Me To The Moon...The Great American Songbook Volume V (2010)

Rod Stewart - Fly Me To The Moon...The Great American Songbook Volume V (2010)
EAC | Flac(Image) + Cue + Log & MP3 CBR 320Kbps
2CD | J Records, 88697772092 | ~ 432 or 159 Mb | Scans Included
Smooth Jazz / Swing / Vocal / Easy Listening

"Rod Stewart has been mining the Great American Songbook for the better part of a decade, so it would only make sense that he would get a little bit better as time goes by. And, by some stroke of fate, Fly Me to the Moon -- the fifth installment in this never-ending series and first since 2005, as Rod spent the back half of the 2000s taking songbook detours into rock and soul -- is Stewart's best album in the entire series..."


Tracklist CD1:

01. That Old Black Magic (Harold Arlen, Johnny Mercer) 04:36
02. Beyond The Sea (Jack Lawrence, Charles Trenet) 03:25
03. I've Got You Under My Skin (Cole Porter) 03:51
04. What A Difference A Day Makes (Stanley Adams, Maria Grever) 03:22
05. I Get A Kick Out Of You (Porter) 03:33
06. I've Got The World On A String (Arlen, Ted Koehler) 02:53
07. My Foolish Heart (Walter Donaldson, Gus Kahn) 03:07
08. Love Me Or Leave Me (Ned Washington, Victor Young) 03:38
09. September In The Rain (Al Dubin, Harry Warren) 02:56
10. Fly Me To The Moon (Bart Howard) 02:46
11. On The Sunny Side Of The Street (Dorothy Fields, Jimmy McHugh) 02:56
12. Moon River (Henry Mancini, Mercer) 02:49

Exact Audio Copy V1.1 from 23. June 2015

Отчёт EAC об извлечении, выполненном 8. сентября 2015, 22:46

Rod Stewart / Fly Me To The Moon...The Great American Songbook Volume V

Дисковод: Optiarc DVD RW AD-7260S Adapter: 1 ID: 0

Режим чтения : Достоверность
Использование точного потока : Да
Отключение кэша аудио : Да
Использование указателей C2 : Нет

Коррекция смещения при чтении : 48
Способность читать области Lead-in и Lead-out : Нет
Заполнение пропущенных сэмплов тишиной : Да
Удаление блоков с тишиной в начале и конце : Нет
При вычислениях CRC использовались нулевые сэмплы : Да
Интерфейс : Встроенный Win32-интерфейс для Win NT/2000

Выходной формат : Пользовательский кодировщик
Выбранный битрейт : 128 kBit/s
Качество : Высокий
Добавление ID3-тега : Нет
Утилита сжатия : C:\Program Files (x86)\Exact Audio Copy\Flac\flac.exe
Дополнительные параметры : -V -8 -T "Date=%year%" -T "Genre=%genre%" %source%

TOC извлечённого CD Трек | Старт | Длительность | Начальный сектор | Конечный сектор

1 | 0:00.09 | 4:35.52 | 9 | 20685
2 | 4:35.61 | 3:25.13 | 20686 | 36073
3 | 8:00.74 | 3:50.46 | 36074 | 53369
4 | 11:51.45 | 3:22.00 | 53370 | 68519
5 | 15:13.45 | 3:32.71 | 68520 | 84490
6 | 18:46.41 | 2:52.64 | 84491 | 97454
7 | 21:39.30 | 3:07.25 | 97455 | 111504
8 | 24:46.55 | 3:37.72 | 111505 | 127851
9 | 28:24.52 | 2:55.65 | 127852 | 141041
10 | 31:20.42 | 2:45.63 | 141042 | 153479
11 | 34:06.30 | 2:56.07 | 153480 | 166686
12 | 37:02.37 | 2:48.69 | 166687 | 179355

Характеристики диапазона извлечения и сообщения об ошибках

Выбранный диапазон Имя файла C:\Users\Slava Z\Desktop\Rod Stewart - Fly Me To The Moon...The Great American Songbook Volume V.wav Пиковый уровень 99.9 %
Скорость извлечения 3.6 X
Качество диапазона 99.9 %
CRC теста 8A4A59BA
CRC копии 8A4A59BA
Копирование... OK

Ошибок не произошло


AccurateRip: сводка

Трек 1 : извлечено точно (доверие 75) [7C05A4B1] (AR v2)
Трек 2 : извлечено точно (доверие 75) [96F84315] (AR v2)
Трек 3 : извлечено точно (доверие 75) [43B0BB05] (AR v2)
Трек 4 : извлечено точно (доверие 75) [A4CDD2EE] (AR v2)
Трек 5 : извлечено точно (доверие 74) [1AB0E8E7] (AR v2)
Трек 6 : извлечено точно (доверие 75) [232ADDEA] (AR v2)
Трек 7 : извлечено точно (доверие 75) [FD218736] (AR v2)
Трек 8 : извлечено точно (доверие 75) [5C5B01D3] (AR v2)
Трек 9 : извлечено точно (доверие 75) [02224FA5] (AR v2)
Трек 10 : извлечено точно (доверие 75) [8A8F83EB] (AR v2)
Трек 11 : извлечено точно (доверие 74) [06F9F2CD] (AR v2)
Трек 12 : извлечено точно (доверие 75) [D2E354F9] (AR v2)

Все треки извлечены точно

Конец отчёта

==== Контрольная сумма отчёта D32EEC40230199F24DEC394B5BE52D98D1807D02F29EF1FBCE220D17643A0ECA ====

foobar2000 1.2.9 / Dynamic Range Meter 1.1.1
log date: 2015-09-10 20:45:02

Analyzed: Rod Stewart / Fly Me To The Moon...The Great American Songbook Volume V

DR Peak RMS Duration Track

DR7 -0.10 dB -9.03 dB 4:36 01-That Old Black Magic
DR6 -0.10 dB -8.10 dB 3:25 02-Beyond The Sea
DR7 -0.10 dB -9.16 dB 3:51 03-I've Got You Under My Skin
DR11 -0.10 dB -12.74 dB 3:22 04-What A Difference A Day Makes
DR6 -0.10 dB -7.77 dB 3:33 05-I Get A Kick Out Of You
DR7 -0.10 dB -8.79 dB 2:53 06-I've Got The World On A String
DR7 -0.10 dB -8.95 dB 3:07 07-Love Me Or Leave Me
DR7 -0.10 dB -9.32 dB 3:38 08-My Foolish Heart
DR7 -0.10 dB -9.39 dB 2:56 09-September In The Rain
DR7 0.00 dB -9.97 dB 2:46 10-Fly Me To The Moon
DR7 -0.10 dB -8.85 dB 2:56 11-Sunny Side Of The Street
DR8 -0.10 dB -10.24 dB 2:49 12-Moon River

Number of tracks: 12
Official DR value: DR7

Samplerate: 44100 Hz
Channels: 2
Bits per sample: 16
Bitrate: 918 kbps
Codec: FLAC

[CUETools log; Date: 01.09.2015 13:15:47; Version: 2.1.4]
Pregap length 00:00:09.
[CTDB TOCID: bQZh0QpUoWixU3CQTlIBl1KbdI0-] found.
Track | CTDB Status
1 | (50/52) Accurately ripped
2 | (50/52) Accurately ripped
3 | (50/52) Accurately ripped
4 | (50/52) Accurately ripped
5 | (50/52) Accurately ripped
6 | (50/52) Accurately ripped
7 | (50/52) Accurately ripped
8 | (50/52) Accurately ripped
9 | (50/52) Accurately ripped
10 | (50/52) Accurately ripped
11 | (50/52) Accurately ripped
12 | (50/52) Accurately ripped
[AccurateRip ID: 0012edcf-00ad769e-9909570c] found.
Track [ CRC | V2 ] Status
01 [d29d8389|7c05a4b1] (027+075/194) Accurately ripped
02 [532ec6f3|96f84315] (027+075/193) Accurately ripped
03 [9c261129|43b0bb05] (028+075/195) Accurately ripped
04 948e94d|a4cdd2ee (028+075/195) Accurately ripped
05 [0a03a37f|1ab0e8e7] (028+074/193) Accurately ripped
06 [d99d4630|232addea] (027+075/193) Accurately ripped
07 [0c355196|fd218736] (027+075/194) Accurately ripped
08 [56873cc4|5c5b01d3] (027+075/193) Accurately ripped
09 [019c938a|02224fa5] (028+075/195) Accurately ripped
10 [7d595641|8a8f83eb] (027+075/194) Accurately ripped
11 [ff024092|06f9f2cd] (027+074/193) Accurately ripped
12 [d9fdbb08|d2e354f9] (026+075/192) Accurately ripped
Offsetted by -12:
01 [ed3693f6] (020/194) Accurately ripped
02 [3fd0f2d5] (018/193) Accurately ripped
03 [f4427985] (020/195) Accurately ripped
04 [d40e01c1] (020/195) Accurately ripped
05 [8ee74d08] (020/193) Accurately ripped
06 [0a4959ac] (020/193) Accurately ripped
07 [eb3f7b1a] (020/194) Accurately ripped
08 [982c4bcc] (020/193) Accurately ripped
09 [f4b961fc] (020/195) Accurately ripped
10 [1202a48d] (020/194) Accurately ripped
11 [99344e2d] (020/193) Accurately ripped
12 [18aa8a01] (019/192) Accurately ripped
Offsetted by 36:
01 2c0bb75 (003/194) Accurately ripped
02 [44b2fa2a] (003/193) Accurately ripped
03 [adf37a48] (003/195) Accurately ripped
04 [80b50ce0] (003/195) Accurately ripped
05 [d4dbe0f5] (003/193) Accurately ripped
06 [1602b597] (003/193) Accurately ripped
07 [03dd988e] (003/194) Accurately ripped
08 [3d6e0fbc] (003/193) Accurately ripped
09 [c21da940] (003/195) Accurately ripped
10 [e4a43446] (003/194) Accurately ripped
11 [48af0ddd] (003/193) Accurately ripped
12 1284dc2 (003/192) Accurately ripped
Offsetted by -42:
01 [fddd7cb7] (000/194) No match (V2 was not tested)
02 [a55c7f14] (000/193) No match (V2 was not tested)
03 [d745bf8e] (000/195) No match (V2 was not tested)
04 [e61e1a90] (000/195) No match (V2 was not tested)
05 [577f1144] (000/193) No match (V2 was not tested)
06 [90a9353b] (000/193) No match (V2 was not tested)
07 [1a4e97c1] (000/194) No match (V2 was not tested)
08 a219aef (000/193) No match (V2 was not tested)
09 [ee332477] (000/195) No match (V2 was not tested)
10 [61b219a7] (000/194) No match (V2 was not tested)
11 [e063ba72] (000/193) No match (V2 was not tested)
12 [f0b9c60a] (000/192) No match (V2 was not tested)
Offsetted by -18:
01 [edba8898] (000/194) No match (V2 was not tested)
02 [88184b3d] (000/193) No match
03 [120deb67] (000/195) No match
04 [45f08dfc] (000/195) No match
05 [9570b147] (000/193) No match
06 [4ba8b388] (000/193) No match
07 [d3831762] (000/194) No match
08 [8c8227c8] (000/193) No match
09 [8a20d4a3] (000/195) No match
10 [06fa77db] (000/194) No match
11 [248997bf] (000/193) No match
12 [04ae2351] (000/192) No match

Track Peak [ CRC32 ] [W/O NULL]
-- 99,9 [8A4A59BA] [2D252102]
01 98,8 [D5E986B2] [4A5EC420]
02 98,8 [FB931ECB] E8B4A95
03 98,8 [039E657C] [8DC3A76D]
04 98,8 [8B955AC7] [823747DB]
05 98,8 38FC013 [8060B5E5]
06 98,8 [66BF2F27] [09CBE870]
07 98,8 [5E202770] [5EC07BDF]
08 98,8 [F242A950] [C9E767FB]
09 98,8 [469A0FB9] [E837B217]
10 99,9 [57980B4C] [C09911D9]
11 98,8 [135B852D] [A74580E3]
12 98,8 [26368D2F] [0D63E6FF]

Rod Stewart - Fly Me To The Moon...The Great American Songbook Volume V (2010)

Tracklist CD2:

01. Bye Bye Blackbird (Mort Dixon, Ray Henderson) 04:10
02. All Of Me (Gerald Marks, Seymour Simons) 03:09
03. She's Funny That Way (Neil Moret, Richard A. Whiting) 03:23
04. Cheek To Cheek (Irving Berlin) 03:30
05. Ain't Misbehavin' (Harry Brooks, Andy Razaf, Fats Waller) 03:49
06. When I Fall In Love (Edward Heyman, Young) 03:45

Exact Audio Copy V1.1 from 23. June 2015

Отчёт EAC об извлечении, выполненном 8. сентября 2015, 23:27

Rod Stewart / Fly Me To The Moon...The Great American Songbook Volume V

Дисковод: Optiarc DVD RW AD-7260S Adapter: 1 ID: 0

Режим чтения : Достоверность
Использование точного потока : Да
Отключение кэша аудио : Да
Использование указателей C2 : Нет

Коррекция смещения при чтении : 48
Способность читать области Lead-in и Lead-out : Нет
Заполнение пропущенных сэмплов тишиной : Да
Удаление блоков с тишиной в начале и конце : Нет
При вычислениях CRC использовались нулевые сэмплы : Да
Интерфейс : Встроенный Win32-интерфейс для Win NT/2000

Выходной формат : Пользовательский кодировщик
Выбранный битрейт : 128 kBit/s
Качество : Высокий
Добавление ID3-тега : Нет
Утилита сжатия : C:\Program Files (x86)\Exact Audio Copy\Flac\flac.exe
Дополнительные параметры : -V -8 -T "Date=%year%" -T "Genre=%genre%" %source%

TOC извлечённого CD Трек | Старт | Длительность | Начальный сектор | Конечный сектор

1 | 0:00.00 | 4:09.41 | 0 | 18715
2 | 4:09.41 | 3:09.02 | 18716 | 32892
3 | 7:18.43 | 3:23.21 | 32893 | 48138
4 | 10:41.64 | 3:29.51 | 48139 | 63864
5 | 14:11.40 | 3:48.71 | 63865 | 81035
6 | 18:00.36 | 3:45.30 | 81036 | 97940

Характеристики диапазона извлечения и сообщения об ошибках

Выбранный диапазон Имя файла C:\Users\Slava Z\Desktop\Rod Stewart - Fly Me To The Moon...The Great American Songbook Volume V.wav Пиковый уровень 98.8 %
Скорость извлечения 3.2 X
Качество диапазона 100.0 %
CRC теста 3B5D9AE1
CRC копии 3B5D9AE1
Копирование... OK

Ошибок не произошло


AccurateRip: сводка

Трек 1 : извлечено точно (доверие 24) [578A557E] (AR v2)
Трек 2 : извлечено точно (доверие 24) 43BC9AA (AR v2)
Трек 3 : извлечено точно (доверие 24) [4C12AB24] (AR v2)
Трек 4 : извлечено точно (доверие 24) [F4F75EF7] (AR v2)
Трек 5 : извлечено точно (доверие 24) [1D15DABE] (AR v2)
Трек 6 : извлечено точно (доверие 24) [CA1D35CC] (AR v2)

Все треки извлечены точно

Конец отчёта

==== Контрольная сумма отчёта 2DC8CB8EFD08450F0A63388FA980C4BA986F66B8873677B75AECF7D3A037971B ====

foobar2000 1.2.9 / Dynamic Range Meter 1.1.1
log date: 2015-09-10 20:44:49

Analyzed: Rod Stewart / Fly Me To The Moon...The Great American Songbook Volume V

DR Peak RMS Duration Track

DR6 -0.10 dB -7.15 dB 4:10 01-Bye Bye Blackbird
DR7 -0.10 dB -8.62 dB 3:09 02-All Of Me
DR6 -0.10 dB -8.24 dB 3:23 03-She's Funny That Way
DR7 -0.10 dB -8.22 dB 3:30 04-Cheek To Cheek
DR7 -0.10 dB -8.56 dB 3:49 05-Ain't Misbehavin'
DR7 -0.10 dB -9.02 dB 3:45 06-When I Fall In Love

Number of tracks: 6
Official DR value: DR6

Samplerate: 44100 Hz
Channels: 2
Bits per sample: 16
Bitrate: 946 kbps
Codec: FLAC

[CUETools log; Date: 01.09.2015 13:16:00; Version: 2.1.4]
[CTDB TOCID: 6szO0.Ns7TP2QDc4zQ1ibcgKlxc-] found.
Track | CTDB Status
1 | (33/33) Accurately ripped
2 | (33/33) Accurately ripped
3 | (33/33) Accurately ripped
4 | (33/33) Accurately ripped
5 | (33/33) Accurately ripped
6 | (33/33) Accurately ripped
[AccurateRip ID: 00053a3e-001bc494-3a051906] found.
Track [ CRC | V2 ] Status
01 [e661d3ca|578a557e] (07+24/61) Accurately ripped
02 [364c1d7f|b43bc9aa] (06+24/60) Accurately ripped
03 [ee1976ed|4c12ab24] (06+24/60) Accurately ripped
04 [4e10bd2d|f4f75ef7] (06+24/60) Accurately ripped
05 [5c3e4b16|1d15dabe] (06+24/60) Accurately ripped
06 [0556fef9|ca1d35cc] (05+24/59) Accurately ripped
Offsetted by -12:
01 [254e32f7] (07/61) Accurately ripped
02 f0005ac (07/60) Accurately ripped
03 [5d423795] (07/60) Accurately ripped
04 [d054173c] (07/60) Accurately ripped
05 [7f9e825c] (07/60) Accurately ripped
06 [09521514] (07/59) Accurately ripped
Offsetted by -42:
01 [1f83baa5] (00/61) No match (V2 was not tested)
02 [f8e3ddd5] (00/60) No match (V2 was not tested)
03 [eab3e44a] (00/60) No match (V2 was not tested)
04 [eecba202] (00/60) No match (V2 was not tested)
05 [3b23069f] (00/60) No match (V2 was not tested)
06 [5b325601] (00/59) No match (V2 was not tested)

Track Peak [ CRC32 ] [W/O NULL]
-- 98,8 [3B5D9AE1] [C6120AC9]
01 98,8 [990DDCF8] [ADF13B7C]
02 98,8 [D189BDF3] 66A47E1
03 98,8 [9947A4A9] [625851A1]
04 98,8 [0419BF81] [FAB6A582]
05 98,8 [ADD67D19] [CA5B4048]
06 98,8 [38811221] [AE261898]

Rod Stewart - Fly Me To The Moon...The Great American Songbook Volume V (2010)

DOWNLOAD
(Premium Recommended)


All above links are interchangable. No password

Direct Download

Tags: Stewart, American, Songbook

Rod Stewart - Fly Me To The Moon...The Great American Songbook Volume V (2010) Download via Hotfile Rapidshare Fileserve Megaupload & FileSonic, Rod Stewart - Fly Me To The Moon...The Great American Songbook Volume V (2010) free torrent downloads included crack, serial, keygen.


Attention!Information

Members of Guest cannot leave comments.