Joe Bonamassa - Tour de Force: Live In London - Hammersmith Apollo (2014) [2CD] {J&R Adventures}

Download Now


Joe Bonamassa - Tour de Force: Live In London - Hammersmith Apollo (2014) [2CD] {J&R Adventures}
Joe Bonamassa - Tour de Force: Live In London - Hammersmith Apollo (2014) [2CD] {J&R Adventures}
EAC rip (secure mode) | FLAC (tracks)+CUE+LOG -> 708 Mb | MP3 @320 -> 276 Mb
Full Artwork @ 600 dpi (jpg) -> 45 Mb | 5% repair rar
© 2014 J&R Adventures | JRA44458
Rock / Blues Rock / Guitar

"Guitar Hero Joe Bonamassa released his epic "Tour De Force - Live In London" as a 2-CD set on May 19, 2014. The unprecedented live concert event - which was released on four DVDs (or Blu-rays) last fall with all four debuting in the Top 10 on Billboard's Music DVD Chart - was captured last year when Bonamassa performed a quartet of shows at the iconic London venues he's played throughout his career - Royal Albert Hall, Hammersmith Apollo, Shepherd's Bush Empire, and The Borderline. The venues provide the backdrop for a ferocious four-night event, each evening marked by a unique theme featuring Bonamassa with different bands, different set lists, and different arrangements and ensembles performing over 60 songs in total - some never performed live before - from Bonamassa's extensive career."

Joe Bonamassa - Tour de Force: Live In London - Hammersmith Apollo (2014) [2CD] {J&R Adventures}

"Tour De Force - Live In London chronicles Bonamassa's atmospheric rise from the intimate club environment of The Borderline to the prestigious Royal Albert Hall.

Beginning in the 200-capacity London Borderline with a trio, Bonamassa pays tribute to his earlier career performing songs he hasn't played live in years.

The following evening at Shepherd's Bush Empire is a blues-themed night featuring a horns section with a soulful, big-blues-band feel.

Then on to the Hammersmith Apollo which opens with a short acoustic set before moving into a rock-inspired evening.

Finally, on the fourth and final night at the Royal Albert Hall, Bonamassa treats the crowd to a half acoustic/half electric show of his most popular and well-known songs featuring the acoustic band from his #1 Billboard acoustic CD/DVD An Acoustic Evening at the Vienna Opera House.

The end result - over 9 hours of concert footage - more than lives up to its billing as "The Guitar Event of The Year" and sees Bonamassa reliving, revisiting, and redefining the many phases and pivotal moments throughout his career and delivering a once-in-a-lifetime performance that more than serves as an appropriate retrospective for an artist who has already achieved so much."


Joe Bonamassa - Tour de Force: Live In London - Hammersmith Apollo (2014) [2CD] {J&R Adventures}


Personnel:
Joe Bonamassa - Vocals, Guitars
Carmine Rojas - Bass
Tal Bergman - Drums
Arlan Schierbaum - Keyboards
Lenny Castro - Percussion
Doug Henthorn - Backing Vocals

tracklist:
Disc One

01. Albion
02. Seagull
03. Jelly Roll
04. Richmond
05. Athens To Athens
06. Woke Up Dreaming
07. Cradle Rock
08. When the Fire Hits the Sea
09. Dustbowl
10. Dislocated Boy
11. Driving Towards The Daylight

Joe Bonamassa - Tour de Force: Live In London - Hammersmith Apollo (2014) [2CD] {J&R Adventures}


Disc Two
01. Who's Been Talking
02. Jockey Full Of Bourbon
03. Tea For One
04. Lonesome Road Blues
05. The Ballad Of John Henry
06. Sloe Gin
07. Just Got Paid

Joe Bonamassa - Tour de Force: Live In London - Hammersmith Apollo (2014) [2CD] {J&R Adventures}



Exact Audio Copy V1.0 beta 4 from 7. December 2014

EAC extraction logfile from 20. February 2015, 17:45

Joe Bonamassa / TOUR DE FORCE: Hammersmith Apollo

Used drive : ATAPI DVD A DH24AYS Adapter: 1 ID: 0

Read mode : Secure
Utilize accurate stream : Yes
Defeat audio cache : Yes
Make use of C2 pointers : No

Read offset correction

: 48
Overread into Lead-In and Lead-Out : No
Fill up missing offset samples with silence : Yes
Delete leading and trailing silent blocks : No
Null samples used in CRC calculations : Yes
Used interface
: Native Win32 interface for Win NT & 2000
Gap handling
: Appended to previous track

Used output format : User Defined Encoder
Selected bitrate : 896 kBit/s
Quality : High
Add ID3 tag : No
Command line compressor : C:\Program Files (x86)\Exact Audio Copy\FLAC\FLAC.EXE
Additional command line options : -8 -V -T "ARTIST=%artist%" -T "TITLE=%title%" -T "ALBUM=%albumtitle%" -T "DATE=%year%" -T "TRACKNUMBER=%tracknr%" -T "TOTALTRACKS=%numtracks%" -T "GENRE=%genre%" -T "ALBUMARTIST=%albumartist%" -T "ALBUM ARTIST=%albumartist%" -T "COMMENT=EAC Secure Mode, Test & Copy, AccurateRip, FLAC -8" %source%

TOC of the extracted CD Track | Start | Length | Start sector | End sector
--1 | 0:00.00 | 2:13.68 | 0 | 10042 2 | 2:13.68 | 4:33.74 | 10043 | 30591 3 | 6:47.67 | 2:53.14 | 30592 | 43580 4 | 9:41.06 | 4:49.10 | 43581 | 65265 5 | 14:30.16 | 4:51.26 | 65266 | 87116 6 | 19:21.42 | 4:09.38 | 87117 | 105829 7 | 23:31.05 | 4:58.32 | 105830 | 128211 8 | 28:29.37 | 3:47.46 | 128212 | 145282 9 | 32:17.08 | 7:09.45 | 145283 | 177502
10 | 39:26.53 | 9:52.35 | 177503 | 221937
11 | 49:19.13 | 6:22.73 | 221938 | 250660

Track 1 Filename P:\Music [flac]\Tour de Force - Hammersmith Apollo (2014) [FLAC] (2CD)\01 - Albion (Intro).wav Pre-gap length 0:00:02.00 Peak level 97.8 %
Extraction speed 3.3 X
Track quality 100.0 %
Test CRC 7F4B2299
Copy CRC 7F4B2299
Accurately ripped (confidence 5) [A5B669C8] (AR v2)
Copy OK

Track 2 Filename P:\Music [flac]\Tour de Force - Hammersmith Apollo (2014) [FLAC] (2CD)\02 - Seagull.wav Peak level 98.2 %
Extraction speed 3.3 X
Track quality 100.0 %
Test CRC CF94BE5D
Copy CRC CF94BE5D
Accurately ripped (confidence 5) [F1C34375] (AR v2)
Copy OK

Track 3 Filename P:\Music [flac]\Tour de Force - Hammersmith Apollo (2014) [FLAC] (2CD)\03 - Jelly Roll.wav Peak level 98.3 %
Extraction speed 3.8 X
Track quality 100.0 %
Test CRC 54476841
Copy CRC 54476841
Accurately ripped (confidence 5) [9BA3A315] (AR v2)
Copy OK

Track 4 Filename P:\Music [flac]\Tour de Force - Hammersmith Apollo (2014) [FLAC] (2CD)\04 - Richmond.wav Peak level 98.2 %
Extraction speed 3.3 X
Track quality 99.9 %
Test CRC 03CF03AC
Copy CRC 03CF03AC
Accurately ripped (confidence 5) [6011416D] (AR v2)
Copy OK

Track 5 Filename P:\Music [flac]\Tour de Force - Hammersmith Apollo (2014) [FLAC] (2CD)\05 - Athens To Athens.wav Peak level 99.0 %
Extraction speed 4.1 X
Track quality 100.0 %
Test CRC DCE02952
Copy CRC DCE02952
Accurately ripped (confidence 5) [D58970DB] (AR v2)
Copy OK

Track 6 Filename P:\Music [flac]\Tour de Force - Hammersmith Apollo (2014) [FLAC] (2CD)\06 - Woke Up Dreaming.wav Peak level 97.7 %
Extraction speed 4.5 X
Track quality 100.0 %
Test CRC 9B537510
Copy CRC 9B537510
Accurately ripped (confidence 5) [CC11DD5B] (AR v2)
Copy OK

Track 7 Filename P:\Music [flac]\Tour de Force - Hammersmith Apollo (2014) [FLAC] (2CD)\07 - Cradle Rock.wav Peak level 98.8 %
Extraction speed 4.5 X
Track quality 100.0 %
Test CRC B8711D8C
Copy CRC B8711D8C
Accurately ripped (confidence 5) [553EC329] (AR v2)
Copy OK

Track 8 Filename P:\Music [flac]\Tour de Force - Hammersmith Apollo (2014) [FLAC] (2CD)\08 - When the Fire Hits the Sea.wav Peak level 98.6 %
Extraction speed 4.9 X
Track quality 100.0 %
Test CRC B8BD259C
Copy CRC B8BD259C
Accurately ripped (confidence 5) [0AD5A673] (AR v2)
Copy OK

Track 9 Filename P:\Music [flac]\Tour de Force - Hammersmith Apollo (2014) [FLAC] (2CD)\09 - Dustbowl.wav Peak level 99.3 %
Extraction speed 4.5 X
Track quality 99.9 %
Test CRC 1143BD65
Copy CRC 1143BD65
Accurately ripped (confidence 5) [87DA221F] (AR v2)
Copy OK

Track 10 Filename P:\Music [flac]\Tour de Force - Hammersmith Apollo (2014) [FLAC] (2CD)\10 - Dislocated Boy.wav Peak level 100.0 %
Extraction speed 5.1 X
Track quality 100.0 %
Test CRC 7EEC9729
Copy CRC 7EEC9729
Accurately ripped (confidence 5) [5B5D7117] (AR v2)
Copy OK

Track 11 Filename P:\Music [flac]\Tour de Force - Hammersmith Apollo (2014) [FLAC] (2CD)\11 - Driving Towards The Daylight.wav Peak level 98.3 %
Extraction speed 5.6 X
Track quality 100.0 %
Test CRC 916F79B7
Copy CRC 916F79B7
Accurately ripped (confidence 5) [51C46CFE] (AR v2)
Copy OK

All tracks accurately ripped

No errors occurred

End of status report

- CUETools DB Plugin V2.1.4

[CTDB TOCID: rqS1pXh776D4r1rLNMDYWdbqYMQ-] found
Submit result: rqS1pXh776D4r1rLNMDYWdbqYMQ- has been confirmed
Track | CTDB Status
1 | (4/4) Accurately ripped
2 | (4/4) Accurately ripped
3 | (4/4) Accurately ripped
4 | (4/4) Accurately ripped
5 | (4/4) Accurately ripped
6 | (4/4) Accurately ripped
7 | (4/4) Accurately ripped
8 | (4/4) Accurately ripped
9 | (4/4) Accurately ripped
10 | (4/4) Accurately ripped
11 | (3/4) Accurately ripped

==== Log checksum 487194329C1F5EADFC3305C60F81687EE2F61A0B8828A02F0405060590AE8748 ====

Exact Audio Copy V1.0 beta 4 from 7. December 2014

EAC extraction logfile from 20. February 2015, 18:28

Joe Bonamassa / Tour de Force: Hammersmith Apollo

Used drive : ATAPI DVD A DH24AYS Adapter: 1 ID: 0

Read mode : Secure
Utilize accurate stream : Yes
Defeat audio cache : Yes
Make use of C2 pointers : No

Read offset correction

: 48
Overread into Lead-In and Lead-Out : No
Fill up missing offset samples with silence : Yes
Delete leading and trailing silent blocks : No
Null samples used in CRC calculations : Yes
Used interface
: Native Win32 interface for Win NT & 2000
Gap handling
: Appended to previous track

Used output format : User Defined Encoder
Selected bitrate : 896 kBit/s
Quality : High
Add ID3 tag : No
Command line compressor : C:\Program Files (x86)\Exact Audio Copy\FLAC\FLAC.EXE
Additional command line options : -8 -V -T "ARTIST=%artist%" -T "TITLE=%title%" -T "ALBUM=%albumtitle%" -T "DATE=%year%" -T "TRACKNUMBER=%tracknr%" -T "TOTALTRACKS=%numtracks%" -T "GENRE=%genre%" -T "ALBUMARTIST=%albumartist%" -T "ALBUM ARTIST=%albumartist%" -T "COMMENT=EAC Secure Mode, Test & Copy, AccurateRip, FLAC -8" %source%

TOC of the extracted CD Track | Start | Length | Start sector | End sector
--1 | 0:00.00 | 5:45.40 | 0 | 25914 2 | 5:45.40 | 5:29.54 | 25915 | 50643 3 | 11:15.19 | 9:43.62 | 50644 | 94430 4 | 20:59.06 | 4:57.35 | 94431 | 116740 5 | 25:56.41 | 13:16.64 | 116741 | 176504 6 | 39:13.30 | 8:59.18 | 176505 | 216947 7 | 48:12.48 | 12:25.25 | 216948 | 272847

Track 1 Filename P:\Music [flac]\Tour de Force - Hammersmith Apollo (2014) [FLAC] (2CD)\CD2\01 - Who's Been Talking.wav Pre-gap length 0:00:02.00 Peak level 99.6 %
Extraction speed 3.0 X
Track quality 100.0 %
Test CRC 665AF0BB
Copy CRC 665AF0BB
Accurately ripped (confidence 15) [4AB8FA9C] (AR v2)
Copy OK

Track 2 Filename P:\Music [flac]\Tour de Force - Hammersmith Apollo (2014) [FLAC] (2CD)\CD2\02 - Jockey Full Of Bourbon.wav Peak level 98.8 %
Extraction speed 3.5 X
Track quality 100.0 %
Test CRC 7A6FAB36
Copy CRC 7A6FAB36
Accurately ripped (confidence 15) [D117C477] (AR v2)
Copy OK

Track 3 Filename P:\Music [flac]\Tour de Force - Hammersmith Apollo (2014) [FLAC] (2CD)\CD2\03 - Tea For One.wav Peak level 98.8 %
Extraction speed 3.8 X
Track quality 100.0 %
Test CRC 9D8C7CFD
Copy CRC 9D8C7CFD
Accurately ripped (confidence 15) [AE0D3A58] (AR v2)
Copy OK

Track 4 Filename P:\Music [flac]\Tour de Force - Hammersmith Apollo (2014) [FLAC] (2CD)\CD2\04 - Lonesome Road Blues.wav Peak level 98.8 %
Extraction speed 3.9 X
Track quality 99.9 %
Test CRC 75927D09
Copy CRC 75927D09
Accurately ripped (confidence 15) [8F705ADD] (AR v2)
Copy OK

Track 5 Filename P:\Music [flac]\Tour de Force - Hammersmith Apollo (2014) [FLAC] (2CD)\CD2\05 - The Ballad Of John Henry.wav Peak level 98.9 %
Extraction speed 4.6 X
Track quality 100.0 %
Test CRC 05E08E7F
Copy CRC 05E08E7F
Accurately ripped (confidence 15) [6DB439B5] (AR v2)
Copy OK

Track 6 Filename P:\Music [flac]\Tour de Force - Hammersmith Apollo (2014) [FLAC] (2CD)\CD2\06 - Sloe Gin.wav Peak level 98.7 %
Extraction speed 5.1 X
Track quality 100.0 %
Test CRC 6D791814
Copy CRC 6D791814
Accurately ripped (confidence 15) [A2363734] (AR v2)
Copy OK

Track 7 Filename P:\Music [flac]\Tour de Force - Hammersmith Apollo (2014) [FLAC] (2CD)\CD2\07 - Just Got Paid.wav Peak level 98.8 %
Extraction speed 5.2 X
Track quality 99.9 %
Test CRC F24BFA9F
Copy CRC F24BFA9F
Accurately ripped (confidence 5) [586810D9] (AR v2)
Copy OK

All tracks accurately ripped

No errors occurred

End of status report

- CUETools DB Plugin V2.1.4

[CTDB TOCID: F4FITiVXnSiWr6vf46imnuNSV6s-] found
Submit result: F4FITiVXnSiWr6vf46imnuNSV6s- has been confirmed
Track | CTDB Status
1 | (16/16) Accurately ripped
2 | (16/16) Accurately ripped
3 | (16/16) Accurately ripped
4 | (16/16) Accurately ripped
5 | (16/16) Accurately ripped
6 | (16/16) Accurately ripped
7 | ( 4/16) Accurately ripped

==== Log checksum FF24BDFC0D9D96872701BA4ABF6D60C2564BC68640456D5CBBB4F432448A02E5 ====

Joe Bonamassa - Tour de Force: Live In London - Hammersmith Apollo (2014) [2CD] {J&R Adventures}

DOWNLOAD:
Buy Premium To Support Me & Get Resumable Support & Max Speed


Links are Interchangeable - No Password

Direct Download

Tags: Bonamassa, London, Hammersmith, Apollo, Adventures

Joe Bonamassa - Tour de Force: Live In London - Hammersmith Apollo (2014) [2CD] {J&R Adventures} Download via Hotfile Rapidshare Fileserve Megaupload & FileSonic, Joe Bonamassa - Tour de Force: Live In London - Hammersmith Apollo (2014) [2CD] {J&R Adventures} free torrent downloads included crack, serial, keygen.


Attention!Information

Members of Guest cannot leave comments.