Buddy Guy - Stone Crazy! (1981)

Download Now

Buddy Guy - Stone Crazy! (1981)

Buddy Guy - Stone Crazy! (1981)
Blues | 1cd | EAC Rip | Flac + Cue + Log | covers
Alligator ALCD 4723 | rec: 1979; rel: 1990 | 310Mb

Buddy Guy mostly indulges his histrionic side throughout this high-energy set, first issued in France and soon picked up for domestic consumption by Alligator. Stone Crazy! is a particularly attractive proposition for rock-oriented fans, who will no doubt dig Guy's non-stop incendiary, no-holds-barred guitar attack and informal arrangements. Purists may want to look elsewhere. ~Allmusic
Track listing
01. I Smell A Rat (9:13)
02. Are You Losing Your Mind? (6:37)
03. You've Been Gone Too Long (5:42)
04. She's Out There Somewhere (4:34)
05. Outskirts Of Town (8:10)
06. When I Left Home (8:21)
~ (42:37)

Exact Audio Copy V1.0 beta 3 from 29. August 2011

Отчёт EAC об извлечении, выполненном 7. апреля 2013, 18:52

Buddy Guy / Stone Crazy!

Дисковод: SONY CD-RW CRX230ED Adapter: 0 ID: 1

Режим чтения : Достоверность
Использование точного потока : Да
Отключение кэша аудио : Да
Использование указателей C2 : Нет

Коррекция смещения при чтении : 6
Способность читать области Lead-in и Lead-out : Нет
Заполнение пропущенных сэмплов тишиной : Да
Удаление блоков с тишиной в начале и конце : Нет
При вычислениях CRC использовались нулевые сэмплы : Да
Интерфейс : Установленный внешний ASPI-интерфейс

Выходной формат : Внутренние WAV-операции
Формат сэмплов : 44.100 Гц; 16 бит; стерео

TOC извлечённого CD Трек | Старт | Длительность | Начальный сектор | Конечный сектор

1 | 0:00.00 | 9:13.20 | 0 | 41494
2 | 9:13.20 | 6:37.20 | 41495 | 71289
3 | 15:50.40 | 5:41.55 | 71290 | 96919
4 | 21:32.20 | 4:33.42 | 96920 | 117436
5 | 26:05.62 | 8:09.50 | 117437 | 154161
6 | 34:15.37 | 8:21.13 | 154162 | 191749

Характеристики диапазона извлечения и сообщения об ошибках

Выбранный диапазон Имя файла E:\MusicCD\Torrent\Buddy Guy\Buddy Guy - Stone Crazy!\Buddy Guy - Stone Crazy!.wav Пиковый уровень 92.0 %
Скорость извлечения 7.4 X
Качество диапазона 100.0 %
CRC теста C925BF32
CRC копии C925BF32
Копирование... OK

Ошибок не произошло


AccurateRip: сводка

Трек 1 : извлечено точно (доверие 2) [8D4E9A24] (AR v2)
Трек 2 : извлечено точно (доверие 2) [934CD87F] (AR v2)
Трек 3 : извлечено точно (доверие 2) [726B07D4] (AR v2)
Трек 4 : извлечено точно (доверие 2) [F5331A2D] (AR v2)
Трек 5 : извлечено точно (доверие 2) [56546844] (AR v2)
Трек 6 : извлечено точно (доверие 2) [6DAF94CA] (AR v2)

Все треки извлечены точно

Конец отчёта

==== Контрольная сумма отчёта 1E4108A79E730C5F33EFEB8C5C856E03391BAA02AA25C7A104D3063DE8DC1AE5 ====

[CUETools log; Date: 2015.09.09. 12:39:36; Version: 2.1.5]
[CTDB TOCID: iDpSPs1ZskwRt.LQrWZskZVND9Q-] found.
Track | CTDB Status
1 | (17/32) Accurately ripped, or (11/32) differs in 6 samples @04:39:11
2 | (17/32) Accurately ripped, or (11/32) differs in 6 samples @04:59:15
3 | (32/32) Accurately ripped
4 | (31/32) Accurately ripped
5 | (31/32) Accurately ripped
6 | (30/32) Accurately ripped
[AccurateRip ID: 000a451e-00360004-5209fc06] found.
Track [ CRC | V2 ] Status
01 [d6173a7a|8d4e9a24] (09+12/93) Accurately ripped
02 ce2f1fb|934cd87f (09+13/97) Accurately ripped
03 [15d773bb|726b07d4] (09+13/95) Accurately ripped
04 [31caf280|f5331a2d] (09+13/97) Accurately ripped
05 [af73324d|56546844] (09+13/95) Accurately ripped
06 [cb88768f|6daf94ca] (09+13/92) Accurately ripped
Offsetted by -2082:
01 [06520ab6] (02/93) Accurately ripped
02 [f0d8022b] (02/97) Accurately ripped
03 [6cfa15e5] (02/95) Accurately ripped
04 6b816bc (02/97) Accurately ripped
05 [0fedb4f7] (02/95) Accurately ripped
06 [e3db3ef3] (02/92) Accurately ripped
Offsetted by -1984:
01 [4f0e1afa] (05/93) Accurately ripped
02 [4fc80bfb] (05/97) Accurately ripped
03 [a8916a7b] (05/95) Accurately ripped
04 [84ef5300] (05/97) Accurately ripped
05 [e584190d] (05/95) Accurately ripped
06 [cbf5bef1] (05/92) Accurately ripped
Offsetted by -869:
01 [2754e8f0] (02/93) Accurately ripped
02 [92636bf3] (02/97) Accurately ripped
03 [73240074] (02/95) Accurately ripped
04 [002512f6] (02/97) Accurately ripped
05 [f0adf446] (02/95) Accurately ripped
06 [78ab6bf1] (02/92) Accurately ripped
Offsetted by 356:
01 483b442 (04/93) Accurately ripped
02 [351be69b] (04/97) Accurately ripped
03 [5c07a1c7] (04/95) Accurately ripped
04 [91d78448] (04/97) Accurately ripped
05 [5e85d759] (04/95) Accurately ripped
06 [8cb86e55] (04/92) Accurately ripped
Offsetted by -1126:
01 [0552d32e] (00/93) No match (V2 was not tested)
02 [a3de428b] (00/97) No match (V2 was not tested)
03 [fb6ff639] (00/95) No match (V2 was not tested)
04 [34558734] (00/97) No match (V2 was not tested)
05 [4d9e564b] (00/95) No match (V2 was not tested)
06 [adeab006] (00/92) No match (V2 was not tested)
Offsetted by -963:
01 [ad5227b4] (00/93) No match (V2 was not tested)
02 [de8267c3] (00/97) No match (V2 was not tested)
03 [831fe8ca] (00/95) No match (V2 was not tested)
04 [4a04fdba] (00/97) No match (V2 was not tested)
05 [f4ca1c1c] (00/95) No match (V2 was not tested)
06 [47d818d0] (00/92) No match (V2 was not tested)
Offsetted by 240:
01 [4985c05a] (00/93) No match (V2 was not tested)
02 [d468437b] (00/97) No match (V2 was not tested)
03 [cc59bb0b] (19/95) Accurately ripped
04 [d7381860] (19/97) Accurately ripped
05 54bfd9d (19/95) Accurately ripped
06 [d0bc8540] (19/92) Accurately ripped
Offsetted by 447:
01 [d37b7a38] (00/93) No match
02 [68b1a693] (02/97) Accurately ripped
03 [935d4bc0] (00/95) No match
04 [f5e63c3e] (02/97) Accurately ripped
05 723c692 (00/95) No match
06 [89b2acd9] (00/92) No match (V2 was not tested)

Track Peak [ CRC32 ] [W/O NULL] [ LOG ]
-- 92,0 [C925BF32] [727C5736] CRC32
01 90,6 [69FC13CF] [CD837769]
02 80,7 [145B80A7] [F63AA8A1]
03 92,0 4B758B4 [F9DC2337]
04 86,7 [78BA41CE] [EB993DB5]
05 69,6 [01FDDBA1] [73DE805C]
06 81,4 [AC8B4DC4] [CF4F0EB0]

Thx to squirr
password: asd
DOWNLOAD
(Premium Recommended)


All above links are interchangable. No password

Direct Download

Buddy Guy - Stone Crazy! (1981) Download via Hotfile Rapidshare Fileserve Megaupload & FileSonic, Buddy Guy - Stone Crazy! (1981) free torrent downloads included crack, serial, keygen.


Attention!Information

Members of Guest cannot leave comments.