Kronos Quartet - Mugam Sayagi: Music of Franghiz Ali-Zadeh (2005)

Download Now

Kronos Quartet - Mugam Sayagi: Music of Franghiz Ali-Zadeh (2005)

Kronos Quartet - Mugam Sayagi: Music of Franghiz Ali-Zadeh (2005)
EAC | FLAC | Tracks (Cue&Log) ~ 260 Mb (incl 5%) | Mp3 (CBR320) ~ 165 Mb (incl 5%) | Scans included
Genre: Contemporary Classical, Minimalism, Avant-Garde | Label: Nonesuch | # 7559-79804-2 | Time: 01:01:33

"Some people would quickly run away from the music of someone who claims to admire the music of Berg, Crumb, and Cage. Franguiz Ali-Zadeh admires all of those composers and uses similar techniques in her composition, but she also finds inspiration in the music of her native Azerbaijan. With all of this, she creates especially evocative, picturesque works that invite listening more than once. Oasis, the opening work on this disc of her music featuring the Kronos Quartet, begins extremely quietly with water droplets, and then the quartet enters with desolate harmonics, depicting the desolation of the desert. Later in the piece, voices of those taking refuge in the oasis are heard. Ali-Zadeh's music is full of sounds beyond that of the traditionally played instruments of the string quartet and the piano, sounds that enhance and become part of the music. Sometimes it is techniques such as pizzicato, harmonics, col legno, or preparing or playing the strings of the piano; other times it is added instruments, as in Mugam Sayagi, or recorded sound, as in Oasis."



MUSICIANS

Kronos Quartet:
- David Harrington, violin
- John Sherba, violin
- Hank Dutt, viola
- Jennifer Culp, cello

Franghiz Ali-Zadeh, piano (1, 4)

Tracklist:

01. Oasis (13:26)
02. Apsheron Quintet I - Tactile Time (11:34)
03. Apsheron Quintet II - Reverse Time (07:32)
04. Music for Piano (07:38)
05. Mugam Sayaghi (21:20)


Exact Audio Copy V0.99 prebeta 5 from 4. May 2009

EAC extraction logfile from 7. July 2009, 11:19

Kronos Quartet / Mugam Sayagi (Music of Franghiz Ali-Zadeh)

Used drive : HL-DT-STDVDRAM GH20NS10 Adapter: 2 ID: 0

Read mode : Secure
Utilize accurate stream : Yes
Defeat audio cache : Yes
Make use of C2 pointers : No

Read offset correction

: 667
Overread into Lead-In and Lead-Out : No
Fill up missing offset samples with silence : Yes
Delete leading and trailing silent blocks : No
Null samples used in CRC calculations : Yes
Used interface
: Native Win32 interface for Win NT & 2000
Gap handling
: Appended to previous track

Used output format : User Defined Encoder
Selected bitrate : 1024 kBit/s
Quality : High
Add ID3 tag : No
Command line compressor : C:\Program Files\FLAC\flac.exe
Additional command line options : -8 -V -T "ARTIST=%a" -T "TITLE=%t" -T "ALBUM=%g" -T "DATE=%y" -T "TRACKNUMBER=%n" -T "GENRE=%m" -T "COMMENT=EAC FLAC -8" %s

TOC of the extracted CD Track | Start | Length | Start sector | End sector
--1 | 0:00.00 | 13:26.05 | 0 | 60454 2 | 13:26.05 | 11:34.70 | 60455 | 112574 3 | 25:01.00 | 7:32.60 | 112575 | 146534 4 | 32:33.60 | 7:38.70 | 146535 | 180954 5 | 40:12.55 | 21:20.48 | 180955 | 277002

Track 1 Filename D:\torrents_up\Mugam Sayangi - Music of Franghiz Ali-Zadeh (2005) [FLAC] {Kronos Quartet}\01 - Oasis.wav Pre-gap length 0:00:02.00 Peak level 99.7 %
Track quality 100.0 %
Test CRC BB23E289
Copy CRC BB23E289
Cannot be verified as accurate (confidence 6) [38CBF6DE], AccurateRip returned [970EBBD5]
Copy OK

Track 2 Filename D:\torrents_up\Mugam Sayangi - Music of Franghiz Ali-Zadeh (2005) [FLAC] {Kronos Quartet}\02 - Apsheron Quintet I - Tactile Time.wav Pre-gap length 0:00:06.96 Peak level 99.2 %
Track quality 100.0 %
Test CRC 269A19DD
Copy CRC 269A19DD
Cannot be verified as accurate (confidence 5) [4D09BF66], AccurateRip returned [106D7E20]
Copy OK

Track 3 Filename D:\torrents_up\Mugam Sayangi - Music of Franghiz Ali-Zadeh (2005) [FLAC] {Kronos Quartet}\03 - Apsheron Quintet II - Reverse Time.wav Pre-gap length 0:00:07.33 Peak level 52.6 %
Track quality 100.0 %
Test CRC 7CD09F76
Copy CRC 7CD09F76
Cannot be verified as accurate (confidence 6) [222C0C26], AccurateRip returned [884872D9]
Copy OK

Track 4 Filename D:\torrents_up\Mugam Sayangi - Music of Franghiz Ali-Zadeh (2005) [FLAC] {Kronos Quartet}\04 - Music for Piano.wav Pre-gap length 0:00:09.05 Peak level 55.9 %
Track quality 99.9 %
Test CRC D10AB01A
Copy CRC D10AB01A
Cannot be verified as accurate (confidence 6) [1EDDB04E], AccurateRip returned 97DA273
Copy OK

Track 5 Filename D:\torrents_up\Mugam Sayangi - Music of Franghiz Ali-Zadeh (2005) [FLAC] {Kronos Quartet}\05 - Mugam Sayaghi.wav Pre-gap length 0:00:06.96 Peak level 99.5 %
Track quality 100.0 %
Test CRC 3A5FF78F
Copy CRC 3A5FF78F
Cannot be verified as accurate (confidence 6) [7A5FCF1D], AccurateRip returned [40814298]
Copy OK

No tracks could be verified as accurate
You may have a different pressing from the one(s) in the database

No errors occurred

End of status report

foobar2000 1.2 / Dynamic Range Meter 1.1.1
log date: 2015-09-10 17:03:10

Analyzed: Kronos Quartet / Mugam Sayagi (Music of Franghiz Ali-Zadeh)

DR Peak RMS Duration Track

DR15 -0.02 dB -23.80 dB 13:26 01-Oasis
DR16 -0.06 dB -22.68 dB 11:35 02-Apsheron Quintet I - Tactile Time
DR16 -5.57 dB -28.34 dB 7:33 03-Apsheron Quintet II - Reverse Time
DR15 -5.04 dB -26.94 dB 7:39 04-Music for Piano
DR17 -0.04 dB -24.44 dB 21:21 05-Mugam Sayaghi

Number of tracks: 5
Official DR value: DR16

Samplerate: 44100 Hz
Channels: 2
Bits per sample: 16
Bitrate: 517 kbps
Codec: FLAC

Kronos Quartet - Mugam Sayagi: Music of Franghiz Ali-Zadeh (2005)

Kronos Quartet - Mugam Sayagi: Music of Franghiz Ali-Zadeh (2005)

All thanks to original releaser - brick_top
Password: designol

Download Links:
(Premium Recommended)


All above links are interchangable. No password

Direct Download

Tags: Kronos, Quartet, Sayagi, Franghiz

Kronos Quartet - Mugam Sayagi: Music of Franghiz Ali-Zadeh (2005) Download via Hotfile Rapidshare Fileserve Megaupload & FileSonic, Kronos Quartet - Mugam Sayagi: Music of Franghiz Ali-Zadeh (2005) free torrent downloads included crack, serial, keygen.


Attention!Information

Members of Guest cannot leave comments.