Dave Specter & Steve Freund - Is What It Is (2004)

Download Now

Dave Specter & Steve Freund - Is What It Is (2004)

Dave Specter & Steve Freund - Is What It Is (2004)
EAC | FLAC | Image (Cue&Log) ~ 449 Mb (incl 5%) | Mp3 (CBR320) ~ 170 Mb (incl 5%) | Scans included
Genre: Modern Electric Blues, Electric Chicago Blues | Label: Delmark | # DE-779 | Time: 01:06:46

"The long established musical relationship between guitarists Dave Specter and Steve Freund goes back nearly 20 years, when Specter sought out Freund as a guitar teacher. They have shared many stages, but this marks the first occasion that they have recorded together. In the best of the Chicago blues tradition as illustrated by the legendary Delmark label, Is What It Is is a loose, swinging, tough blues date filled with great tunes, inspired playing and loose-groove vibes. While Specter has become well-known for his jazzy blues playing, his former teacher Freund has stayed close to the roots of the Chicago sound. That contrast works beautifully here on both covers and originals. Freund's tunes are some of the bets on the set as evidenced by the opener "My Little Playhouse." One of the reasons for this is his deep, clear soulful singing which adds punch and nuance to the dueling guitars Specter brings classy elegance to the set in his instrumentals."



Tracklist:

01. My Little Playhouse (04:08)
02. Is What It Is (05:35)
03. People Get Ready (06:44)
04. Hoverin' Hawk (05:49)
05. While My Guitar Gently Weeps (06:05)
06. Albatross (04:38)
07. Loan a Helping Hand (04:05)
08. Too Hot at Home (06:59)
09. Riverside Ride (06:47)
10. Rollin' Man (05:17)
11. Adrienne (05:40)
12. She Needs Some Loving (04:54)


Exact Audio Copy V0.99 prebeta 5 from 4. May 2009

Отчёт EAC об извлечении, выполненном 10. сентября 2015, 16:13

Dave Specter and Steve Freund / Is What It Is

Дисковод: ASUS DRW-24F1ST a Adapter: 0 ID: 0

Режим чтения : Достоверность
Использование точного потока : Да
Отключение кэша аудио : Да
Использование указателей C2 : Нет

Коррекция смещения при чтении : 6
Способность читать области Lead-in и Lead-out : Нет
Заполнение пропущенных сэмплов тишиной : Да
Удаление блоков с тишиной в начале и конце : Нет
При вычислениях CRC использовались нулевые сэмплы : Да
Интерфейс : Встроенный Win32-интерфейс для Win NT/2000

Выходной формат : Пользовательский кодировщик
Выбранный битрейт : 768 kBit/s
Качество : Высокий
Добавление ID3-тэга : Нет
Утилита сжатия : D:\05. Other\01. Programmes\Exact Audio Copy\FLAC\FLAC.EXE
Дополнительные параметры : -6 -V -T "ARTIST=%a" -T "TITLE=%t" -T "ALBUM=%g" -T "DATE=%y" -T "TRACKNUMBER=%n" -T "GENRE=%m" -T "COMMENT=%e" %s -o %d

TOC извлечённого CD Трек | Старт | Длительность | Начальный сектор | Конечный сектор

1 | 0:00.00 | 4:08.56 | 0 | 18655
2 | 4:08.56 | 5:35.41 | 18656 | 43821
3 | 9:44.22 | 6:44.12 | 43822 | 74133
4 | 16:28.34 | 5:49.29 | 74134 | 100337
5 | 22:17.63 | 6:05.01 | 100338 | 127713
6 | 28:22.64 | 4:38.21 | 127714 | 148584
7 | 33:01.10 | 4:05.35 | 148585 | 166994
8 | 37:06.45 | 6:59.05 | 166995 | 198424
9 | 44:05.50 | 6:47.64 | 198425 | 229013
10 | 50:53.39 | 5:17.39 | 229014 | 252827
11 | 56:11.03 | 5:40.70 | 252828 | 278397
12 | 61:51.73 | 4:54.50 | 278398 | 300497

Характеристики диапазона извлечения и сообщения об ошибках

Выбранный диапазон Имя файла D:\Dave Specter & Steve Freund - Is What It Is (2004)\Dave Specter and Steve Freund - Is What It Is.wav Пиковый уровень 99.7 %
Качество диапазона 100.0 %
CRC теста F66F01AD
CRC копии F66F01AD
Копирование... OK

Ошибок не произошло


AccurateRip: сводка

Трек 1 точное извлечение (доверие 2) [7BAEA63E]
Трек 2 точное извлечение (доверие 2) [DD6B39D3]
Трек 3 точное извлечение (доверие 2) [30F052EA]
Трек 4 точное извлечение (доверие 2) [3D959E37]
Трек 5 точное извлечение (доверие 2) [872F5383]
Трек 6 точное извлечение (доверие 2) [D14485E6]
Трек 7 точное извлечение (доверие 2) [26DDBA5F]
Трек 8 точное извлечение (доверие 2) [7393FF4A]
Трек 9 точное извлечение (доверие 2) [C5EE6D63]
Трек 10 точное извлечение (доверие 2) [08E3D7DF]
Трек 11 точное извлечение (доверие 2) [7B9D74F3]
Трек 12 точное извлечение (доверие 2) [173EB206]

Все треки извлечены точно

Конец отчёта

foobar2000 1.2 / Dynamic Range Meter 1.1.1
log date: 2015-09-11 14:26:35

Analyzed: Dave Specter and Steve Freund / Is What It Is

DR Peak RMS Duration Track

DR9 -0.10 dB -10.35 dB 4:09 01-My Little Playhouse
DR9 -0.10 dB -11.00 dB 5:36 02-Is What It Is
DR9 -0.10 dB -11.81 dB 6:44 03-People Get Ready
DR8 -0.10 dB -9.87 dB 5:49 04-Hoverin' Hawk
DR10 -0.10 dB -11.61 dB 6:05 05-While My Guitar Gently Weeps
DR13 -0.07 dB -15.54 dB 4:38 06-Albatross
DR9 -0.10 dB -10.02 dB 4:05 07-Loan a Helping Hand
DR10 -0.10 dB -11.63 dB 6:59 08-Too Hot at Home
DR9 -0.10 dB -10.25 dB 6:48 09-Riverside Ride
DR9 -0.10 dB -11.12 dB 5:18 10-Rollin' Man
DR11 -0.02 dB -13.36 dB 5:41 11-Adrienne
DR10 -0.10 dB -11.98 dB 4:55 12-She Needs Some Loving

Number of tracks: 12
Official DR value: DR10

Samplerate: 44100 Hz
Channels: 2
Bits per sample: 16
Bitrate: 877 kbps
Codec: FLAC

Dave Specter & Steve Freund - Is What It Is (2004)

Dave Specter & Steve Freund - Is What It Is (2004)

All thanks to original releaser - lukya
Password: designol

Download Links:
(Premium Recommended)


All above links are interchangable. No password

Direct Download

Tags: Specter, Freund

Dave Specter & Steve Freund - Is What It Is (2004) Download via Hotfile Rapidshare Fileserve Megaupload & FileSonic, Dave Specter & Steve Freund - Is What It Is (2004) free torrent downloads included crack, serial, keygen.


Attention!Information

Members of Guest cannot leave comments.