Edgar Winter and Rick Derringer - Live in Japan (1990)

Download Now

Edgar Winter and Rick Derringer - Live in Japan (1990)

Edgar Winter and Rick Derringer - Live in Japan (1990)
Rock | 1cd | EAC Rip | Flac + Cue + Log | covers
CTE cd 884 426-906 | rel: 1990 | 530Mb

Aside from the fact that Rick Derringer seems to have lost the biggest part of his voice prior to this recording, the album serves as a rocking documentation of Winter in Japan, where he is revered as a star of the highest magnitude. And why not? After all, it was Edgar Winter who led that powerhouse rock & roll band called White Trash in the early '70s. Here, he recreates the sound of that band with "Fly Away" and "Keep Playing That Rock and Roll."
And who can forget "Frankenstein" and "Free Ride," both played live here. Rick Derringer pulls out one from his All American Boy release, "Teenage Love Affair," and walks through his earliest hit with the McCoys, "Hang On Sloopy." Not the best live work Edgar Winter has ever commited to magnetic tape, but certainly worth the price of admission. ~Allmusic

Track listing
01. Introduction (1:51)
02. Keep Playin' That Rock And Roll (3:54)
03. Teenage Love Affair (3:36)
04. Free Ride (4:08)
05. Fly Away (8:03)
06. Blood From A Stone (5:29)
07. Under Cover Man (4:19)
08. Jump, Jump, Jump (7:17)
09. Hang On Sloopy (5:45)
10. Against The Law (4:26)
11. I Play Guitar (4:34)
12. Rock And Roll Hoochie Koo (7:01)
13. Frankenstein (14:26)
~ (74:48)

EAC extraction logfile from 26. December 2006, 18:56 for CD
Edgar Winter And Rick Derringer / Live In Japan

Used drive : _NEC DVD_RW ND-3570A Adapter: 2 ID: 0
Read mode : Secure with NO C2, accurate stream, disable cache
Read offset correction : 48
Overread into Lead-In and Lead-Out : No

Used output format : Internal WAV Routines 44.100 Hz; 16 Bit; Stereo

Other options :
Fill up missing offset samples with silence : Yes
Delete leading and trailing silent blocks : No
Installed external ASPI interface

Range status and errors
Selected range
Filename C:\HQ\Edgar Winter and Rick Derringer - Live in Japan\CDImage.wav Peak level 95.7 %
Range quality 100.0 %
CRC 4B188F21
Copy OK

No errors occured

End of status report

[CUETools log; Date: 2015.09.09. 14:44:48; Version: 2.1.5]
[CTDB TOCID: JDuv7_WCVvyG7T_MIbgULXuxJ2s-] found.
Track | CTDB Status
1 | (2/2) Accurately ripped
2 | (2/2) Accurately ripped
3 | (2/2) Accurately ripped
4 | (2/2) Accurately ripped
5 | (2/2) Accurately ripped
6 | (2/2) Accurately ripped
7 | (2/2) Accurately ripped
8 | (2/2) Accurately ripped
9 | (2/2) Accurately ripped
10 | (2/2) Accurately ripped
11 | (2/2) Accurately ripped
12 | (2/2) Accurately ripped
13 | (2/2) Accurately ripped
[AccurateRip ID: 001d8fd6-01349c86-a111880d] found.
Track [ CRC | V2 ] Status
01 [47738baf|f3288ad6] (2+4/6) Accurately ripped
02 [e49b7649|ea1b705d] (2+4/6) Accurately ripped
03 [cc2449ab|d5de877c] (2+4/6) Accurately ripped
04 [ffc99dc1|3eba307d] (2+4/6) Accurately ripped
05 [ce655e66|1b2e9cbd] (2+4/6) Accurately ripped
06 [70751a46|782d9d57] (2+4/6) Accurately ripped
07 [804b9a73|b33f3b97] (2+4/6) Accurately ripped
08 [7497d17f|62b2b4b3] (2+4/6) Accurately ripped
09 [84aae50b|8c5c4d87] (0+4/4) Accurately ripped
10 [96c60bee|98e89bb1] (0+4/4) Accurately ripped
11 [99b87893|1a0b0572] (2+4/6) Accurately ripped
12 [22b92823|9a1cd260] (2+4/6) Accurately ripped
13 [ff8560ce|78ca0852] (2+4/6) Accurately ripped

Track Peak [ CRC32 ] [W/O NULL] [ LOG ]
-- 95,7 [4B188F21] [8886C4DE] CRC32
01 91,6 [F86ABF61] [5F9D776F]
02 95,6 [1C2EBE33] [EBC79569]
03 89,8 [4D520575] [32E1C7F2]
04 92,4 [12250644] [2D9D1BB5]
05 91,2 [ECE1988C] [F1CE2CF7]
06 89,8 [96269BBC] [37556077]
07 95,0 [0F6C481F] [4CBD8EE2]
08 91,6 [0BC75C2F] [6720D33A]
09 91,7 [EDD5B3E0] [319D731B]
10 95,7 [497D9475] [5C678AFC]
11 91,1 [8ED74DE3] [746F9210]
12 93,2 [4270C2BD] [75371CF6]
13 92,1 [2C480066] [06D19311]

original uploader unknown, found in my archive
password: asd
DOWNLOAD LINKS
(Premium Recommended)


Links are Interchangeable - No Password - Single Extraction

Direct Download

Tags: Winter, Derringer

Edgar Winter and Rick Derringer - Live in Japan (1990) Download via Hotfile Rapidshare Fileserve Megaupload & FileSonic, Edgar Winter and Rick Derringer - Live in Japan (1990) free torrent downloads included crack, serial, keygen.


Attention!Information

Members of Guest cannot leave comments.